找回密码

蓝光电影网

查看: 23|回复: 0

[2160p-WEB] 菲戈往事:改变足坛的世纪转会[中文字幕].The.Figo.Affair.The.Transfer.that.Changed.Football.2022.SPANISH.2160p.NF.WEB-DL.x265.10bit.SDR.DDP5.1.Atmos-XEBEC 13.83GB

[复制链接]
蓝光币
1084
发表于 2023-1-25 12:07:21 | 显示全部楼层 |阅读模式


◎标  题 菲戈往事:改变足坛的世纪转会
◎片  名 The Figo Affair: The Transfer that Changed Football
◎年  代 2022
◎产  地 英国
◎类  别 记载片
◎语  言 英语 / 西班牙语
◎上映日期 2022-08-25(英国)
◎IMDb评分 7.1/10 (4413人评价)
◎IMDb链接 https://www.imdb.com/title/tt21836538/
◎豆瓣评分 7.8/10 (374人评价)
◎豆瓣链接 https://movie.douban.com/subject/36071334/
◎片  长 105分钟
◎演  员 路易斯·菲戈 Luis Figo
       弗洛伦蒂诺·佩雷斯 Florentino Pérez
       何塞普·瓜迪奥拉 Josep Guardiola
       罗伯托·卡洛斯 Roberto Carlos
       费尔南多·耶罗 Fernando Hierro
       豪尔赫·巴尔达诺 Jorge Valdano
       Paulo Futre Paulo Futre
       Joan Gaspart Joan Gaspart
◎简  介
    1998 年一个恼人的夏日薄暮,天下足坛最炙手可热的球员路易斯·菲戈走上哥特式加泰罗尼亚宫(加泰罗尼亚总统的府邸)的阳台。他身穿俱乐部套装,头发染成蓝色和红色,在一群庆贺巴塞罗那最新联赛冠军的狂热观众眼前捉住麦克风,高唱:“白衣抽泣,新王即位!”“皇马嘤嘤哭,冠军齐喝彩!”两年后,他来到巴塞罗那的诺坎普活动场,身上穿着的却正是那套红色球衣。他是皇马那支“银河舰队”中第一个加盟的巨星;他是天下上身价最高、支出最高的足球运带动;他是加泰罗尼亚最悔恨的人。                                                                      路易斯·菲戈打破了转会记录,割裂了一个国家,塑造了现代足球;《菲戈往事:改变足坛的世纪转会》让观众深入领会菲戈,报告了令人沉迷的故事:他的转会是若何实现的、幕后买卖进程中的一波三折、载入史册的体坛死敌、深入的文化分歧,以及猪头事务。
  1. Video
  2. ID                                       : 1
  3. Format                                   : HEVC
  4. Format/Info                              : High Efficiency Video Coding
  5. Format profile                           : Main [email protected]@Main
  6. Codec ID                                 : V_MPEGH/ISO/HEVC
  7. Duration                                 : 1 h 45 min
  8. Bit rate                                 : 17.3 Mb/s
  9. Width                                    : 3 840 pixels
  10. Height                                   : 2 160 pixels
  11. Display aspect ratio                     : 16:9
  12. Frame rate mode                          : Constant
  13. Frame rate                               : 25.000 FPS
  14. Color space                              : YUV
  15. Chroma subsampling                       : 4:2:0
  16. Bit depth                                : 10 bits
  17. Bits/(Pixel*Frame)                       : 0.084
  18. Stream size                              : 12.8 GiB (92%)
  19. Default                                  : Yes
  20. Forced                                   : No
  21. Color range                              : Limited
  22. Color primaries                          : BT.709
  23. Transfer characteristics                 : BT.709
  24. Matrix coefficients                      : BT.709
  25. Audio #1
  26. ID                                       : 2
  27. Format                                   : E-AC-3 JOC
  28. Format/Info                              : Enhanced AC-3 with Joint Object Coding
  29. Commercial name                          : Dolby Digital Plus with Dolby Atmos
  30. Codec ID                                 : A_EAC3
  31. Duration                                 : 1 h 45 min
  32. Bit rate mode                            : Constant
  33. Bit rate                                 : 768 kb/s
  34. Channel(s)                               : 6 channels
  35. Channel layout                           : L R C LFE Ls Rs
  36. Sampling rate                            : 48.0 kHz
  37. Frame rate                               : 31.250 FPS (1536 SPF)
  38. Compression mode                         : Lossy
  39. Stream size                              : 580 MiB (4%)
  40. Title                                    : Spanish
  41. Language                                 : Spanish
  42. Service kind                             : Complete Main
  43. Default                                  : Yes
  44. Forced                                   : No
  45. Complexity index                         : 16
  46. Number of dynamic objects                : 15
  47. Bed channel count                        : 1 channel
  48. Bed channel configuration                : LFE
  49. Audio #2
  50. ID                                       : 3
  51. Format                                   : E-AC-3
  52. Format/Info                              : Enhanced AC-3
  53. Commercial name                          : Dolby Digital Plus
  54. Codec ID                                 : A_EAC3
  55. Duration                                 : 1 h 45 min
  56. Bit rate mode                            : Constant
  57. Bit rate                                 : 640 kb/s
  58. Channel(s)                               : 6 channels
  59. Channel layout                           : L R C LFE Ls Rs
  60. Sampling rate                            : 48.0 kHz
  61. Frame rate                               : 31.250 FPS (1536 SPF)
  62. Compression mode                         : Lossy
  63. Stream size                              : 483 MiB (3%)
  64. Title                                    : English
  65. Language                                 : English
  66. Service kind                             : Complete Main
  67. Default                                  : No
  68. Forced                                   : No
  69. Text #1
  70. ID                                       : 4
  71. Format                                   : UTF-8
  72. Codec ID                                 : S_TEXT/UTF8
  73. Codec ID/Info                            : UTF-8 Plain Text
  74. Duration                                 : 1 h 41 min
  75. Bit rate                                 : 28 b/s
  76. Frame rate                               : 0.086 FPS
  77. Count of elements                        : 523
  78. Stream size                              : 20.8 KiB (0%)
  79. Title                                    : English (Forced)
  80. Language                                 : English
  81. Default                                  : No
  82. Forced                                   : Yes
  83. Text #2
  84. ID                                       : 5
  85. Format                                   : UTF-8
  86. Codec ID                                 : S_TEXT/UTF8
  87. Codec ID/Info                            : UTF-8 Plain Text
  88. Duration                                 : 1 h 40 min
  89. Bit rate                                 : 22 b/s
  90. Frame rate                               : 0.071 FPS
  91. Count of elements                        : 429
  92. Stream size                              : 16.6 KiB (0%)
  93. Title                                    : Spanish (Forced)
  94. Language                                 : Spanish
  95. Default                                  : Yes
  96. Forced                                   : Yes
  97. Text #3
  98. ID                                       : 6
  99. Format                                   : UTF-8
  100. Codec ID                                 : S_TEXT/UTF8
  101. Codec ID/Info                            : UTF-8 Plain Text
  102. Duration                                 : 1 h 44 min
  103. Bit rate                                 : 122 b/s
  104. Frame rate                               : 0.216 FPS
  105. Count of elements                        : 1358
  106. Stream size                              : 94.1 KiB (0%)
  107. Title                                    : Arabic
  108. Language                                 : Arabic
  109. Default                                  : No
  110. Forced                                   : No
  111. Text #4
  112. ID                                       : 7
  113. Format                                   : UTF-8
  114. Codec ID                                 : S_TEXT/UTF8
  115. Codec ID/Info                            : UTF-8 Plain Text
  116. Duration                                 : 1 h 44 min
  117. Bit rate                                 : 64 b/s
  118. Frame rate                               : 0.181 FPS
  119. Count of elements                        : 1134
  120. Stream size                              : 49.5 KiB (0%)
  121. Title                                    : Czech
  122. Language                                 : Czech
  123. Default                                  : No
  124. Forced                                   : No
  125. Text #5
  126. ID                                       : 8
  127. Format                                   : UTF-8
  128. Codec ID                                 : S_TEXT/UTF8
  129. Codec ID/Info                            : UTF-8 Plain Text
  130. Duration                                 : 1 h 44 min
  131. Bit rate                                 : 65 b/s
  132. Frame rate                               : 0.205 FPS
  133. Count of elements                        : 1287
  134. Stream size                              : 50.4 KiB (0%)
  135. Title                                    : Danish
  136. Language                                 : Danish
  137. Default                                  : No
  138. Forced                                   : No
  139. Text #6
  140. ID                                       : 9
  141. Format                                   : UTF-8
  142. Codec ID                                 : S_TEXT/UTF8
  143. Codec ID/Info                            : UTF-8 Plain Text
  144. Duration                                 : 1 h 44 min
  145. Bit rate                                 : 69 b/s
  146. Frame rate                               : 0.207 FPS
  147. Count of elements                        : 1299
  148. Stream size                              : 53.1 KiB (0%)
  149. Title                                    : German
  150. Language                                 : German
  151. Default                                  : No
  152. Forced                                   : No
  153. Text #7
  154. ID                                       : 10
  155. Format                                   : UTF-8
  156. Codec ID                                 : S_TEXT/UTF8
  157. Codec ID/Info                            : UTF-8 Plain Text
  158. Duration                                 : 1 h 44 min
  159. Bit rate                                 : 118 b/s
  160. Frame rate                               : 0.211 FPS
  161. Count of elements                        : 1325
  162. Stream size                              : 91.0 KiB (0%)
  163. Title                                    : Modern Greek (1453-)
  164. Language                                 : Greek
  165. Default                                  : No
  166. Forced                                   : No
  167. Text #8
  168. ID                                       : 11
  169. Format                                   : UTF-8
  170. Codec ID                                 : S_TEXT/UTF8
  171. Codec ID/Info                            : UTF-8 Plain Text
  172. Duration                                 : 1 h 44 min
  173. Bit rate                                 : 68 b/s
  174. Frame rate                               : 0.208 FPS
  175. Count of elements                        : 1308
  176. Stream size                              : 52.6 KiB (0%)
  177. Title                                    : English
  178. Language                                 : English
  179. Default                                  : No
  180. Forced                                   : No
  181. Text #9
  182. ID                                       : 12
  183. Format                                   : UTF-8
  184. Codec ID                                 : S_TEXT/UTF8
  185. Codec ID/Info                            : UTF-8 Plain Text
  186. Duration                                 : 1 h 42 min
  187. Bit rate                                 : 83 b/s
  188. Frame rate                               : 0.246 FPS
  189. Count of elements                        : 1508
  190. Stream size                              : 62.6 KiB (0%)
  191. Title                                    : English (SDH)
  192. Language                                 : English
  193. Default                                  : No
  194. Forced                                   : No
  195. Text #10
  196. ID                                       : 13
  197. Format                                   : UTF-8
  198. Codec ID                                 : S_TEXT/UTF8
  199. Codec ID/Info                            : UTF-8 Plain Text
  200. Duration                                 : 1 h 42 min
  201. Bit rate                                 : 90 b/s
  202. Frame rate                               : 0.267 FPS
  203. Count of elements                        : 1641
  204. Stream size                              : 68.0 KiB (0%)
  205. Title                                    : Spanish (SDH)
  206. Language                                 : Spanish
  207. Default                                  : No
  208. Forced                                   : No
  209. Text #11
  210. ID                                       : 14
  211. Format                                   : UTF-8
  212. Codec ID                                 : S_TEXT/UTF8
  213. Codec ID/Info                            : UTF-8 Plain Text
  214. Duration                                 : 1 h 44 min
  215. Bit rate                                 : 63 b/s
  216. Frame rate                               : 0.189 FPS
  217. Count of elements                        : 1187
  218. Stream size                              : 48.7 KiB (0%)
  219. Title                                    : Finnish
  220. Language                                 : Finnish
  221. Default                                  : No
  222. Forced                                   : No
  223. Text #12
  224. ID                                       : 15
  225. Format                                   : UTF-8
  226. Codec ID                                 : S_TEXT/UTF8
  227. Codec ID/Info                            : UTF-8 Plain Text
  228. Duration                                 : 1 h 44 min
  229. Bit rate                                 : 69 b/s
  230. Frame rate                               : 0.210 FPS
  231. Count of elements                        : 1320
  232. Stream size                              : 53.3 KiB (0%)
  233. Title                                    : French
  234. Language                                 : French
  235. Default                                  : No
  236. Forced                                   : No
  237. Text #13
  238. ID                                       : 16
  239. Format                                   : UTF-8
  240. Codec ID                                 : S_TEXT/UTF8
  241. Codec ID/Info                            : UTF-8 Plain Text
  242. Duration                                 : 1 h 44 min
  243. Bit rate                                 : 105 b/s
  244. Frame rate                               : 0.214 FPS
  245. Count of elements                        : 1345
  246. Stream size                              : 80.7 KiB (0%)
  247. Title                                    : Hebrew
  248. Language                                 : Hebrew
  249. Default                                  : No
  250. Forced                                   : No
  251. Text #14
  252. ID                                       : 17
  253. Format                                   : UTF-8
  254. Codec ID                                 : S_TEXT/UTF8
  255. Codec ID/Info                            : UTF-8 Plain Text
  256. Duration                                 : 1 h 44 min
  257. Bit rate                                 : 60 b/s
  258. Frame rate                               : 0.206 FPS
  259. Count of elements                        : 1291
  260. Stream size                              : 46.4 KiB (0%)
  261. Title                                    : Croatian
  262. Language                                 : Croatian
  263. Default                                  : No
  264. Forced                                   : No
  265. Text #15
  266. ID                                       : 18
  267. Format                                   : UTF-8
  268. Codec ID                                 : S_TEXT/UTF8
  269. Codec ID/Info                            : UTF-8 Plain Text
  270. Duration                                 : 1 h 44 min
  271. Bit rate                                 : 70 b/s
  272. Frame rate                               : 0.199 FPS
  273. Count of elements                        : 1252
  274. Stream size                              : 54.0 KiB (0%)
  275. Title                                    : Hungarian
  276. Language                                 : Hungarian
  277. Default                                  : No
  278. Forced                                   : No
  279. Text #16
  280. ID                                       : 19
  281. Format                                   : UTF-8
  282. Codec ID                                 : S_TEXT/UTF8
  283. Codec ID/Info                            : UTF-8 Plain Text
  284. Duration                                 : 1 h 44 min
  285. Bit rate                                 : 65 b/s
  286. Frame rate                               : 0.207 FPS
  287. Count of elements                        : 1303
  288. Stream size                              : 50.5 KiB (0%)
  289. Title                                    : Indonesian
  290. Language                                 : Indonesian
  291. Default                                  : No
  292. Forced                                   : No
  293. Text #17
  294. ID                                       : 20
  295. Format                                   : UTF-8
  296. Codec ID                                 : S_TEXT/UTF8
  297. Codec ID/Info                            : UTF-8 Plain Text
  298. Duration                                 : 1 h 44 min
  299. Bit rate                                 : 65 b/s
  300. Frame rate                               : 0.200 FPS
  301. Count of elements                        : 1256
  302. Stream size                              : 50.1 KiB (0%)
  303. Title                                    : Italian
  304. Language                                 : Italian
  305. Default                                  : No
  306. Forced                                   : No
  307. Text #18
  308. ID                                       : 21
  309. Format                                   : UTF-8
  310. Codec ID                                 : S_TEXT/UTF8
  311. Codec ID/Info                            : UTF-8 Plain Text
  312. Duration                                 : 1 h 44 min
  313. Bit rate                                 : 73 b/s
  314. Frame rate                               : 0.185 FPS
  315. Count of elements                        : 1159
  316. Stream size                              : 56.7 KiB (0%)
  317. Title                                    : Japanese
  318. Language                                 : Japanese
  319. Default                                  : No
  320. Forced                                   : No
  321. Text #19
  322. ID                                       : 22
  323. Format                                   : UTF-8
  324. Codec ID                                 : S_TEXT/UTF8
  325. Codec ID/Info                            : UTF-8 Plain Text
  326. Duration                                 : 1 h 44 min
  327. Bit rate                                 : 92 b/s
  328. Frame rate                               : 0.218 FPS
  329. Count of elements                        : 1369
  330. Stream size                              : 71.1 KiB (0%)
  331. Title                                    : Korean
  332. Language                                 : Korean
  333. Default                                  : No
  334. Forced                                   : No
  335. Text #20
  336. ID                                       : 23
  337. Format                                   : UTF-8
  338. Codec ID                                 : S_TEXT/UTF8
  339. Codec ID/Info                            : UTF-8 Plain Text
  340. Duration                                 : 1 h 44 min
  341. Bit rate                                 : 70 b/s
  342. Frame rate                               : 0.212 FPS
  343. Count of elements                        : 1330
  344. Stream size                              : 53.8 KiB (0%)
  345. Title                                    : Malay (macrolanguage)
  346. Language                                 : Malay
  347. Default                                  : No
  348. Forced                                   : No
  349. Text #21
  350. ID                                       : 24
  351. Format                                   : UTF-8
  352. Codec ID                                 : S_TEXT/UTF8
  353. Codec ID/Info                            : UTF-8 Plain Text
  354. Duration                                 : 1 h 44 min
  355. Bit rate                                 : 66 b/s
  356. Frame rate                               : 0.172 FPS
  357. Count of elements                        : 1079
  358. Stream size                              : 51.2 KiB (0%)
  359. Title                                    : Norwegian Bokm?l
  360. Language                                 : Norwegian Bokmal
  361. Default                                  : No
  362. Forced                                   : No
  363. Text #22
  364. ID                                       : 25
  365. Format                                   : UTF-8
  366. Codec ID                                 : S_TEXT/UTF8
  367. Codec ID/Info                            : UTF-8 Plain Text
  368. Duration                                 : 1 h 44 min
  369. Bit rate                                 : 61 b/s
  370. Frame rate                               : 0.191 FPS
  371. Count of elements                        : 1198
  372. Stream size                              : 47.5 KiB (0%)
  373. Title                                    : Dutch
  374. Language                                 : Dutch
  375. Default                                  : No
  376. Forced                                   : No
  377. Text #23
  378. ID                                       : 26
  379. Format                                   : UTF-8
  380. Codec ID                                 : S_TEXT/UTF8
  381. Codec ID/Info                            : UTF-8 Plain Text
  382. Duration                                 : 1 h 44 min
  383. Bit rate                                 : 62 b/s
  384. Frame rate                               : 0.210 FPS
  385. Count of elements                        : 1316
  386. Stream size                              : 48.2 KiB (0%)
  387. Title                                    : Polish
  388. Language                                 : Polish
  389. Default                                  : No
  390. Forced                                   : No
  391. Text #24
  392. ID                                       : 27
  393. Format                                   : UTF-8
  394. Codec ID                                 : S_TEXT/UTF8
  395. Codec ID/Info                            : UTF-8 Plain Text
  396. Duration                                 : 1 h 44 min
  397. Bit rate                                 : 65 b/s
  398. Frame rate                               : 0.210 FPS
  399. Count of elements                        : 1322
  400. Stream size                              : 50.5 KiB (0%)
  401. Title                                    : Portuguese
  402. Language                                 : Portuguese
  403. Default                                  : No
  404. Forced                                   : No
  405. Text #25
  406. ID                                       : 28
  407. Format                                   : UTF-8
  408. Codec ID                                 : S_TEXT/UTF8
  409. Codec ID/Info                            : UTF-8 Plain Text
  410. Duration                                 : 1 h 44 min
  411. Bit rate                                 : 50 b/s
  412. Frame rate                               : 0.162 FPS
  413. Count of elements                        : 1020
  414. Stream size                              : 39.0 KiB (0%)
  415. Title                                    : Portuguese
  416. Language                                 : Portuguese
  417. Default                                  : No
  418. Forced                                   : No
  419. Text #26
  420. ID                                       : 29
  421. Format                                   : UTF-8
  422. Codec ID                                 : S_TEXT/UTF8
  423. Codec ID/Info                            : UTF-8 Plain Text
  424. Duration                                 : 1 h 44 min
  425. Bit rate                                 : 76 b/s
  426. Frame rate                               : 0.206 FPS
  427. Count of elements                        : 1296
  428. Stream size                              : 58.4 KiB (0%)
  429. Title                                    : Romanian
  430. Language                                 : Romanian
  431. Default                                  : No
  432. Forced                                   : No
  433. Text #27
  434. ID                                       : 30
  435. Format                                   : UTF-8
  436. Codec ID                                 : S_TEXT/UTF8
  437. Codec ID/Info                            : UTF-8 Plain Text
  438. Duration                                 : 1 h 44 min
  439. Bit rate                                 : 112 b/s
  440. Frame rate                               : 0.215 FPS
  441. Count of elements                        : 1348
  442. Stream size                              : 86.6 KiB (0%)
  443. Title                                    : Russian
  444. Language                                 : Russian
  445. Default                                  : No
  446. Forced                                   : No
  447. Text #28
  448. ID                                       : 31
  449. Format                                   : UTF-8
  450. Codec ID                                 : S_TEXT/UTF8
  451. Codec ID/Info                            : UTF-8 Plain Text
  452. Duration                                 : 1 h 44 min
  453. Bit rate                                 : 69 b/s
  454. Frame rate                               : 0.174 FPS
  455. Count of elements                        : 1096
  456. Stream size                              : 53.2 KiB (0%)
  457. Title                                    : Swedish
  458. Language                                 : Swedish
  459. Default                                  : No
  460. Forced                                   : No
  461. Text #29
  462. ID                                       : 32
  463. Format                                   : UTF-8
  464. Codec ID                                 : S_TEXT/UTF8
  465. Codec ID/Info                            : UTF-8 Plain Text
  466. Duration                                 : 1 h 44 min
  467. Bit rate                                 : 175 b/s
  468. Frame rate                               : 0.214 FPS
  469. Count of elements                        : 1347
  470. Stream size                              : 134 KiB (0%)
  471. Title                                    : Thai
  472. Language                                 : Thai
  473. Default                                  : No
  474. Forced                                   : No
  475. Text #30
  476. ID                                       : 33
  477. Format                                   : UTF-8
  478. Codec ID                                 : S_TEXT/UTF8
  479. Codec ID/Info                            : UTF-8 Plain Text
  480. Duration                                 : 1 h 44 min
  481. Bit rate                                 : 63 b/s
  482. Frame rate                               : 0.205 FPS
  483. Count of elements                        : 1286
  484. Stream size                              : 48.9 KiB (0%)
  485. Title                                    : Turkish
  486. Language                                 : Turkish
  487. Default                                  : No
  488. Forced                                   : No
  489. Text #31
  490. ID                                       : 34
  491. Format                                   : UTF-8
  492. Codec ID                                 : S_TEXT/UTF8
  493. Codec ID/Info                            : UTF-8 Plain Text
  494. Duration                                 : 1 h 44 min
  495. Bit rate                                 : 117 b/s
  496. Frame rate                               : 0.230 FPS
  497. Count of elements                        : 1442
  498. Stream size                              : 89.7 KiB (0%)
  499. Title                                    : Ukrainian
  500. Language                                 : Ukrainian
  501. Default                                  : No
  502. Forced                                   : No
  503. Text #32
  504. ID                                       : 35
  505. Format                                   : UTF-8
  506. Codec ID                                 : S_TEXT/UTF8
  507. Codec ID/Info                            : UTF-8 Plain Text
  508. Duration                                 : 1 h 44 min
  509. Bit rate                                 : 103 b/s
  510. Frame rate                               : 0.211 FPS
  511. Count of elements                        : 1326
  512. Stream size                              : 79.3 KiB (0%)
  513. Title                                    : Vietnamese
  514. Language                                 : Vietnamese
  515. Default                                  : No
  516. Forced                                   : No
  517. Text #33
  518. ID                                       : 36
  519. Format                                   : UTF-8
  520. Codec ID                                 : S_TEXT/UTF8
  521. Codec ID/Info                            : UTF-8 Plain Text
  522. Duration                                 : 1 h 44 min
  523. Bit rate                                 : 70 b/s
  524. Frame rate                               : 0.216 FPS
  525. Count of elements                        : 1355
  526. Stream size                              : 54.2 KiB (0%)
  527. Title                                    : Simplified, Chinese
  528. Language                                 : Chinese
  529. Default                                  : No
  530. Forced                                   : No
  531. Text #34
  532. ID                                       : 37
  533. Format                                   : UTF-8
  534. Codec ID                                 : S_TEXT/UTF8
  535. Codec ID/Info                            : UTF-8 Plain Text
  536. Duration                                 : 1 h 44 min
  537. Bit rate                                 : 64 b/s
  538. Frame rate                               : 0.216 FPS
  539. Count of elements                        : 1354
  540. Stream size                              : 49.8 KiB (0%)
  541. Title                                    : Traditional, Chinese
  542. Language                                 : Chinese
  543. Default                                  : No
  544. Forced                                   : No
  545. Menu
  546. 00:00:00.000                             : en:Part 01
  547. 01:42:26.450                             : en:Credits
复制代码











回复

使用道具 举报

懒得打字嘛,点击右侧快捷回复 【右侧内容,后台自定义】
您需要登录后才可以回帖 登录 | 立即加入

本版积分规则

Archiver|小黑屋| 蓝光电影网 |网站地图

Copyright © 2021 Comsenz Inc. Powered by 蓝光电影网

蓝光电影网

本站内容由用户自主分享和转载自互联网,转载目的在于传递更多信息,并不代表本网赞同其观点和对其真实性负责。

如有侵权、违反国家法律政策行为,请联系我们,我们会第一时间及时清除和处理!

举报反馈邮箱:[email protected]

快速回复 返回顶部 返回列表