找回密码

蓝光电影网

查看: 48|回复: 0

[2160p-WEB] 渗透.Transfusion.2023.2160p.STAN.WEB-DL.x265.8bit.SDR.DDP5.1-NOGRP 9.74GB

[复制链接]
蓝光币
1084
发表于 2023-1-25 12:07:22 | 显示全部楼层 |阅读模式


◎标  题 渗透
◎片  名 Transfusion
◎年  代 2023
◎产  地 美国
◎类  别 惊悚
◎语  言 英语
◎IMDb评分 6.8/10 (94人评价)
◎IMDb链接 https://www.imdb.com/title/tt14873054/
◎豆瓣链接 https://movie.douban.com/subject/35500480/
◎简  介
    萨姆·沃辛顿(《阿凡达》)和菲比·托金(《吸血鬼日志》)将主演惊悚片《渗透》(Transfusion)。                                                                      本片由演员马特·纳夫莱(《血战钢锯岭》《中心人师长》)献出导演首秀,他也将出演。报告一位前特种军队奸细为了不让他的独子被带走,而进入犯罪黑社会的天下中。
  1. Video
  2. ID                                       : 1
  3. Format                                   : HEVC
  4. Format/Info                              : High Efficiency Video Coding
  5. Format profile                           : [email protected]@High
  6. Codec ID                                 : V_MPEGH/ISO/HEVC
  7. Duration                                 : 1 h 45 min
  8. Bit rate                                 : 12.8 Mb/s
  9. Width                                    : 3 840 pixels
  10. Height                                   : 2 160 pixels
  11. Display aspect ratio                     : 16:9
  12. Frame rate mode                          : Constant
  13. Frame rate                               : 24.000 FPS
  14. Color space                              : YUV
  15. Chroma subsampling                       : 4:2:0
  16. Bit depth                                : 8 bits
  17. Bits/(Pixel*Frame)                       : 0.064
  18. Stream size                              : 9.45 GiB (97%)
  19. Default                                  : Yes
  20. Forced                                   : No
  21. Color range                              : Limited
  22. Color primaries                          : BT.709
  23. Transfer characteristics                 : BT.709
  24. Matrix coefficients                      : BT.709
  25. Audio
  26. ID                                       : 2
  27. Format                                   : E-AC-3
  28. Format/Info                              : Enhanced AC-3
  29. Commercial name                          : Dolby Digital Plus
  30. Codec ID                                 : A_EAC3
  31. Duration                                 : 1 h 45 min
  32. Bit rate mode                            : Constant
  33. Bit rate                                 : 384 kb/s
  34. Channel(s)                               : 6 channels
  35. Channel layout                           : L R C LFE Ls Rs
  36. Sampling rate                            : 48.0 kHz
  37. Frame rate                               : 31.250 FPS (1536 SPF)
  38. Compression mode                         : Lossy
  39. Delay relative to video                  : 24 ms
  40. Stream size                              : 290 MiB (3%)
  41. Language                                 : English-x-main-surround
  42. Service kind                             : Complete Main
  43. Default                                  : Yes
  44. Forced                                   : No
  45. Text
  46. ID                                       : 3
  47. Format                                   : UTF-8
  48. Codec ID                                 : S_TEXT/UTF8
  49. Codec ID/Info                            : UTF-8 Plain Text
  50. Duration                                 : 1 h 37 min
  51. Bit rate                                 : 43 b/s
  52. Frame rate                               : 0.215 FPS
  53. Count of elements                        : 1258
  54. Stream size                              : 31.0 KiB (0%)
  55. Title                                    : CC
  56. Language                                 : English
  57. Default                                  : Yes
  58. Forced                                   : No
复制代码











回复

使用道具 举报

懒得打字嘛,点击右侧快捷回复 【右侧内容,后台自定义】
您需要登录后才可以回帖 登录 | 立即加入

本版积分规则

Archiver|小黑屋| 蓝光电影网 |网站地图

Copyright © 2021 Comsenz Inc. Powered by 蓝光电影网

蓝光电影网

本站内容由用户自主分享和转载自互联网,转载目的在于传递更多信息,并不代表本网赞同其观点和对其真实性负责。

如有侵权、违反国家法律政策行为,请联系我们,我们会第一时间及时清除和处理!

举报反馈邮箱:[email protected]

快速回复 返回顶部 返回列表