找回密码

蓝光电影网

查看: 13|回复: 0

[2160p-WEB] 义犬救主[中文字幕].Rescued.by.Ruby.2022.2160p.NF.WEB-DL.DDP5.1.Atmos.DV.MKV.x265-XEBEC 12.36GB

[复制链接]
蓝光币
1084
发表于 2023-1-25 12:07:23 | 显示全部楼层 |阅读模式


◎标  题 义犬救主
◎译  名 搜救犬露比 / Ruby the Hero Dog
◎片  名 Rescued by Ruby
◎年  代 2022
◎产  地 美国
◎类  别 剧情 / 儿童
◎语  言 英语
◎上映日期 2022-03-17(美国)
◎IMDb评分 7.2/10 (8713人评价)
◎IMDb链接 https://www.imdb.com/title/tt11278476/
◎豆瓣评分 7.3/10 (1973人评价)
◎豆瓣链接 https://movie.douban.com/subject/35377090/
◎片  长 90分钟
◎导  演 凯特·西亚 Katt Shea
◎编  剧 凯伦·詹森 Karen Janszen
◎演  员 格兰特·古斯汀 Grant Gustin
        Kaylah Zander
◎简  介
    州差人丹(格兰特·古斯汀饰)胡想加入 K-9 搜救队,却苦于得不到机遇。收留所犬露比胡想有一个家,却看不到希望。当命运让丹和露比相遇,一人一犬之间的深厚拘束将帮助这对同伴应对迄今为止最艰难的应战。按照实在故事改编。
  1. Video
  2. ID                                       : 1
  3. Format                                   : HEVC
  4. Format/Info                              : High Efficiency Video Coding
  5. Format profile                           : Main [email protected]@Main
  6. HDR format                               : Dolby Vision, Version 1.0, dvhe.05.06, BL+RPU
  7. Codec ID                                 : V_MPEGH/ISO/HEVC
  8. Duration                                 : 1 h 33 min
  9. Bit rate                                 : 18.1 Mb/s
  10. Width                                    : 3 840 pixels
  11. Height                                   : 2 160 pixels
  12. Display aspect ratio                     : 16:9
  13. Frame rate mode                          : Constant
  14. Frame rate                               : 23.976 (24000/1001) FPS
  15. Color space                              : YUV
  16. Chroma subsampling                       : 4:2:0
  17. Bit depth                                : 10 bits
  18. Bits/(Pixel*Frame)                       : 0.091
  19. Stream size                              : 11.9 GiB (96%)
  20. Default                                  : Yes
  21. Forced                                   : No
  22. Color range                              : Full
  23. Audio
  24. ID                                       : 2
  25. Format                                   : E-AC-3 JOC
  26. Format/Info                              : Enhanced AC-3 with Joint Object Coding
  27. Commercial name                          : Dolby Digital Plus with Dolby Atmos
  28. Codec ID                                 : A_EAC3
  29. Duration                                 : 1 h 33 min
  30. Bit rate mode                            : Constant
  31. Bit rate                                 : 768 kb/s
  32. Channel(s)                               : 6 channels
  33. Channel layout                           : L R C LFE Ls Rs
  34. Sampling rate                            : 48.0 kHz
  35. Frame rate                               : 31.250 FPS (1536 SPF)
  36. Compression mode                         : Lossy
  37. Stream size                              : 514 MiB (4%)
  38. Title                                    : English
  39. Language                                 : English
  40. Service kind                             : Complete Main
  41. Default                                  : Yes
  42. Forced                                   : No
  43. Complexity index                         : 16
  44. Number of dynamic objects                : 15
  45. Bed channel count                        : 1 channel
  46. Bed channel configuration                : LFE
  47. Text #1
  48. ID                                       : 3
  49. Format                                   : UTF-8
  50. Codec ID                                 : S_TEXT/UTF8
  51. Codec ID/Info                            : UTF-8 Plain Text
  52. Duration                                 : 1 h 29 min
  53. Bit rate                                 : 81 b/s
  54. Frame rate                               : 0.221 FPS
  55. Count of elements                        : 1193
  56. Stream size                              : 53.3 KiB (0%)
  57. Title                                    : Arabic
  58. Language                                 : Arabic
  59. Default                                  : No
  60. Forced                                   : No
  61. Text #2
  62. ID                                       : 4
  63. Format                                   : UTF-8
  64. Codec ID                                 : S_TEXT/UTF8
  65. Codec ID/Info                            : UTF-8 Plain Text
  66. Duration                                 : 1 h 29 min
  67. Bit rate                                 : 43 b/s
  68. Frame rate                               : 0.220 FPS
  69. Count of elements                        : 1186
  70. Stream size                              : 28.9 KiB (0%)
  71. Title                                    : Czech
  72. Language                                 : Czech
  73. Default                                  : No
  74. Forced                                   : No
  75. Text #3
  76. ID                                       : 5
  77. Format                                   : UTF-8
  78. Codec ID                                 : S_TEXT/UTF8
  79. Codec ID/Info                            : UTF-8 Plain Text
  80. Duration                                 : 1 h 29 min
  81. Bit rate                                 : 46 b/s
  82. Frame rate                               : 0.216 FPS
  83. Count of elements                        : 1165
  84. Stream size                              : 30.4 KiB (0%)
  85. Title                                    : Danish
  86. Language                                 : Danish
  87. Default                                  : No
  88. Forced                                   : No
  89. Text #4
  90. ID                                       : 6
  91. Format                                   : UTF-8
  92. Codec ID                                 : S_TEXT/UTF8
  93. Codec ID/Info                            : UTF-8 Plain Text
  94. Duration                                 : 1 h 29 min
  95. Bit rate                                 : 44 b/s
  96. Frame rate                               : 0.207 FPS
  97. Count of elements                        : 1117
  98. Stream size                              : 29.5 KiB (0%)
  99. Title                                    : German
  100. Language                                 : German
  101. Default                                  : No
  102. Forced                                   : No
  103. Text #5
  104. ID                                       : 7
  105. Format                                   : UTF-8
  106. Codec ID                                 : S_TEXT/UTF8
  107. Codec ID/Info                            : UTF-8 Plain Text
  108. Duration                                 : 1 h 29 min
  109. Bit rate                                 : 78 b/s
  110. Frame rate                               : 0.221 FPS
  111. Count of elements                        : 1191
  112. Stream size                              : 51.8 KiB (0%)
  113. Title                                    : Modern Greek (1453-)
  114. Language                                 : Greek
  115. Default                                  : No
  116. Forced                                   : No
  117. Text #6
  118. ID                                       : 8
  119. Format                                   : UTF-8
  120. Codec ID                                 : S_TEXT/UTF8
  121. Codec ID/Info                            : UTF-8 Plain Text
  122. Duration                                 : 1 h 28 min
  123. Bit rate                                 : 63 b/s
  124. Frame rate                               : 0.289 FPS
  125. Count of elements                        : 1541
  126. Stream size                              : 41.3 KiB (0%)
  127. Title                                    : English (SDH)
  128. Language                                 : English
  129. Default                                  : No
  130. Forced                                   : No
  131. Text #7
  132. ID                                       : 9
  133. Format                                   : UTF-8
  134. Codec ID                                 : S_TEXT/UTF8
  135. Codec ID/Info                            : UTF-8 Plain Text
  136. Duration                                 : 1 h 29 min
  137. Bit rate                                 : 45 b/s
  138. Frame rate                               : 0.223 FPS
  139. Count of elements                        : 1203
  140. Stream size                              : 30.1 KiB (0%)
  141. Title                                    : Spanish
  142. Language                                 : Spanish
  143. Default                                  : No
  144. Forced                                   : No
  145. Text #8
  146. ID                                       : 10
  147. Format                                   : UTF-8
  148. Codec ID                                 : S_TEXT/UTF8
  149. Codec ID/Info                            : UTF-8 Plain Text
  150. Duration                                 : 1 h 29 min
  151. Bit rate                                 : 46 b/s
  152. Frame rate                               : 0.232 FPS
  153. Count of elements                        : 1250
  154. Stream size                              : 30.9 KiB (0%)
  155. Title                                    : Spanish
  156. Language                                 : Spanish
  157. Default                                  : No
  158. Forced                                   : No
  159. Text #9
  160. ID                                       : 11
  161. Format                                   : UTF-8
  162. Codec ID                                 : S_TEXT/UTF8
  163. Codec ID/Info                            : UTF-8 Plain Text
  164. Duration                                 : 1 h 29 min
  165. Bit rate                                 : 39 b/s
  166. Frame rate                               : 0.206 FPS
  167. Count of elements                        : 1109
  168. Stream size                              : 25.7 KiB (0%)
  169. Title                                    : Finnish
  170. Language                                 : Finnish
  171. Default                                  : No
  172. Forced                                   : No
  173. Text #10
  174. ID                                       : 12
  175. Format                                   : UTF-8
  176. Codec ID                                 : S_TEXT/UTF8
  177. Codec ID/Info                            : UTF-8 Plain Text
  178. Duration                                 : 1 h 29 min
  179. Bit rate                                 : 43 b/s
  180. Frame rate                               : 0.203 FPS
  181. Count of elements                        : 1093
  182. Stream size                              : 28.6 KiB (0%)
  183. Title                                    : French
  184. Language                                 : French
  185. Default                                  : No
  186. Forced                                   : No
  187. Text #11
  188. ID                                       : 13
  189. Format                                   : UTF-8
  190. Codec ID                                 : S_TEXT/UTF8
  191. Codec ID/Info                            : UTF-8 Plain Text
  192. Duration                                 : 1 h 29 min
  193. Bit rate                                 : 79 b/s
  194. Frame rate                               : 0.231 FPS
  195. Count of elements                        : 1247
  196. Stream size                              : 52.1 KiB (0%)
  197. Title                                    : Hebrew
  198. Language                                 : Hebrew
  199. Default                                  : No
  200. Forced                                   : No
  201. Text #12
  202. ID                                       : 14
  203. Format                                   : UTF-8
  204. Codec ID                                 : S_TEXT/UTF8
  205. Codec ID/Info                            : UTF-8 Plain Text
  206. Duration                                 : 1 h 29 min
  207. Bit rate                                 : 37 b/s
  208. Frame rate                               : 0.216 FPS
  209. Count of elements                        : 1164
  210. Stream size                              : 24.9 KiB (0%)
  211. Title                                    : Croatian
  212. Language                                 : Croatian
  213. Default                                  : No
  214. Forced                                   : No
  215. Text #13
  216. ID                                       : 15
  217. Format                                   : UTF-8
  218. Codec ID                                 : S_TEXT/UTF8
  219. Codec ID/Info                            : UTF-8 Plain Text
  220. Duration                                 : 1 h 29 min
  221. Bit rate                                 : 48 b/s
  222. Frame rate                               : 0.221 FPS
  223. Count of elements                        : 1191
  224. Stream size                              : 31.7 KiB (0%)
  225. Title                                    : Hungarian
  226. Language                                 : Hungarian
  227. Default                                  : No
  228. Forced                                   : No
  229. Text #14
  230. ID                                       : 16
  231. Format                                   : UTF-8
  232. Codec ID                                 : S_TEXT/UTF8
  233. Codec ID/Info                            : UTF-8 Plain Text
  234. Duration                                 : 1 h 29 min
  235. Bit rate                                 : 44 b/s
  236. Frame rate                               : 0.219 FPS
  237. Count of elements                        : 1183
  238. Stream size                              : 29.5 KiB (0%)
  239. Title                                    : Indonesian
  240. Language                                 : Indonesian
  241. Default                                  : No
  242. Forced                                   : No
  243. Text #15
  244. ID                                       : 17
  245. Format                                   : UTF-8
  246. Codec ID                                 : S_TEXT/UTF8
  247. Codec ID/Info                            : UTF-8 Plain Text
  248. Duration                                 : 1 h 29 min
  249. Bit rate                                 : 43 b/s
  250. Frame rate                               : 0.229 FPS
  251. Count of elements                        : 1233
  252. Stream size                              : 28.7 KiB (0%)
  253. Title                                    : Italian
  254. Language                                 : Italian
  255. Default                                  : No
  256. Forced                                   : No
  257. Text #16
  258. ID                                       : 18
  259. Format                                   : UTF-8
  260. Codec ID                                 : S_TEXT/UTF8
  261. Codec ID/Info                            : UTF-8 Plain Text
  262. Duration                                 : 1 h 29 min
  263. Bit rate                                 : 43 b/s
  264. Frame rate                               : 0.222 FPS
  265. Count of elements                        : 1198
  266. Stream size                              : 28.4 KiB (0%)
  267. Title                                    : Japanese
  268. Language                                 : Japanese
  269. Default                                  : No
  270. Forced                                   : No
  271. Text #17
  272. ID                                       : 19
  273. Format                                   : UTF-8
  274. Codec ID                                 : S_TEXT/UTF8
  275. Codec ID/Info                            : UTF-8 Plain Text
  276. Duration                                 : 1 h 29 min
  277. Bit rate                                 : 58 b/s
  278. Frame rate                               : 0.218 FPS
  279. Count of elements                        : 1175
  280. Stream size                              : 38.7 KiB (0%)
  281. Title                                    : Korean
  282. Language                                 : Korean
  283. Default                                  : No
  284. Forced                                   : No
  285. Text #18
  286. ID                                       : 20
  287. Format                                   : UTF-8
  288. Codec ID                                 : S_TEXT/UTF8
  289. Codec ID/Info                            : UTF-8 Plain Text
  290. Duration                                 : 1 h 29 min
  291. Bit rate                                 : 44 b/s
  292. Frame rate                               : 0.219 FPS
  293. Count of elements                        : 1179
  294. Stream size                              : 29.4 KiB (0%)
  295. Title                                    : Malay (macrolanguage)
  296. Language                                 : Malay
  297. Default                                  : No
  298. Forced                                   : No
  299. Text #19
  300. ID                                       : 21
  301. Format                                   : UTF-8
  302. Codec ID                                 : S_TEXT/UTF8
  303. Codec ID/Info                            : UTF-8 Plain Text
  304. Duration                                 : 1 h 29 min
  305. Bit rate                                 : 42 b/s
  306. Frame rate                               : 0.181 FPS
  307. Count of elements                        : 975
  308. Stream size                              : 28.0 KiB (0%)
  309. Title                                    : Norwegian Bokm?l
  310. Language                                 : Norwegian Bokmal
  311. Default                                  : No
  312. Forced                                   : No
  313. Text #20
  314. ID                                       : 22
  315. Format                                   : UTF-8
  316. Codec ID                                 : S_TEXT/UTF8
  317. Codec ID/Info                            : UTF-8 Plain Text
  318. Duration                                 : 1 h 29 min
  319. Bit rate                                 : 41 b/s
  320. Frame rate                               : 0.192 FPS
  321. Count of elements                        : 1038
  322. Stream size                              : 27.5 KiB (0%)
  323. Title                                    : Dutch
  324. Language                                 : Dutch
  325. Default                                  : No
  326. Forced                                   : No
  327. Text #21
  328. ID                                       : 23
  329. Format                                   : UTF-8
  330. Codec ID                                 : S_TEXT/UTF8
  331. Codec ID/Info                            : UTF-8 Plain Text
  332. Duration                                 : 1 h 29 min
  333. Bit rate                                 : 41 b/s
  334. Frame rate                               : 0.214 FPS
  335. Count of elements                        : 1154
  336. Stream size                              : 27.5 KiB (0%)
  337. Title                                    : Polish
  338. Language                                 : Polish
  339. Default                                  : No
  340. Forced                                   : No
  341. Text #22
  342. ID                                       : 24
  343. Format                                   : UTF-8
  344. Codec ID                                 : S_TEXT/UTF8
  345. Codec ID/Info                            : UTF-8 Plain Text
  346. Duration                                 : 1 h 29 min
  347. Bit rate                                 : 45 b/s
  348. Frame rate                               : 0.225 FPS
  349. Count of elements                        : 1214
  350. Stream size                              : 29.7 KiB (0%)
  351. Title                                    : Portuguese
  352. Language                                 : Portuguese
  353. Default                                  : No
  354. Forced                                   : No
  355. Text #23
  356. ID                                       : 25
  357. Format                                   : UTF-8
  358. Codec ID                                 : S_TEXT/UTF8
  359. Codec ID/Info                            : UTF-8 Plain Text
  360. Duration                                 : 1 h 28 min
  361. Bit rate                                 : 43 b/s
  362. Frame rate                               : 0.218 FPS
  363. Count of elements                        : 1160
  364. Stream size                              : 28.4 KiB (0%)
  365. Title                                    : Portuguese
  366. Language                                 : Portuguese
  367. Default                                  : No
  368. Forced                                   : No
  369. Text #24
  370. ID                                       : 26
  371. Format                                   : UTF-8
  372. Codec ID                                 : S_TEXT/UTF8
  373. Codec ID/Info                            : UTF-8 Plain Text
  374. Duration                                 : 1 h 29 min
  375. Bit rate                                 : 52 b/s
  376. Frame rate                               : 0.215 FPS
  377. Count of elements                        : 1157
  378. Stream size                              : 34.4 KiB (0%)
  379. Title                                    : Romanian
  380. Language                                 : Romanian
  381. Default                                  : No
  382. Forced                                   : No
  383. Text #25
  384. ID                                       : 27
  385. Format                                   : UTF-8
  386. Codec ID                                 : S_TEXT/UTF8
  387. Codec ID/Info                            : UTF-8 Plain Text
  388. Duration                                 : 1 h 29 min
  389. Bit rate                                 : 75 b/s
  390. Frame rate                               : 0.223 FPS
  391. Count of elements                        : 1200
  392. Stream size                              : 49.4 KiB (0%)
  393. Title                                    : Russian
  394. Language                                 : Russian
  395. Default                                  : No
  396. Forced                                   : No
  397. Text #26
  398. ID                                       : 28
  399. Format                                   : UTF-8
  400. Codec ID                                 : S_TEXT/UTF8
  401. Codec ID/Info                            : UTF-8 Plain Text
  402. Duration                                 : 1 h 29 min
  403. Bit rate                                 : 43 b/s
  404. Frame rate                               : 0.195 FPS
  405. Count of elements                        : 1050
  406. Stream size                              : 28.6 KiB (0%)
  407. Title                                    : Swedish
  408. Language                                 : Swedish
  409. Default                                  : No
  410. Forced                                   : No
  411. Text #27
  412. ID                                       : 29
  413. Format                                   : UTF-8
  414. Codec ID                                 : S_TEXT/UTF8
  415. Codec ID/Info                            : UTF-8 Plain Text
  416. Duration                                 : 1 h 29 min
  417. Bit rate                                 : 136 b/s
  418. Frame rate                               : 0.227 FPS
  419. Count of elements                        : 1225
  420. Stream size                              : 89.8 KiB (0%)
  421. Title                                    : Thai
  422. Language                                 : Thai
  423. Default                                  : No
  424. Forced                                   : No
  425. Text #28
  426. ID                                       : 30
  427. Format                                   : UTF-8
  428. Codec ID                                 : S_TEXT/UTF8
  429. Codec ID/Info                            : UTF-8 Plain Text
  430. Duration                                 : 1 h 29 min
  431. Bit rate                                 : 46 b/s
  432. Frame rate                               : 0.217 FPS
  433. Count of elements                        : 1171
  434. Stream size                              : 30.5 KiB (0%)
  435. Title                                    : Turkish
  436. Language                                 : Turkish
  437. Default                                  : No
  438. Forced                                   : No
  439. Text #29
  440. ID                                       : 31
  441. Format                                   : UTF-8
  442. Codec ID                                 : S_TEXT/UTF8
  443. Codec ID/Info                            : UTF-8 Plain Text
  444. Duration                                 : 1 h 29 min
  445. Bit rate                                 : 71 b/s
  446. Frame rate                               : 0.223 FPS
  447. Count of elements                        : 1199
  448. Stream size                              : 47.3 KiB (0%)
  449. Title                                    : Ukrainian
  450. Language                                 : Ukrainian
  451. Default                                  : No
  452. Forced                                   : No
  453. Text #30
  454. ID                                       : 32
  455. Format                                   : UTF-8
  456. Codec ID                                 : S_TEXT/UTF8
  457. Codec ID/Info                            : UTF-8 Plain Text
  458. Duration                                 : 1 h 29 min
  459. Bit rate                                 : 67 b/s
  460. Frame rate                               : 0.219 FPS
  461. Count of elements                        : 1183
  462. Stream size                              : 44.8 KiB (0%)
  463. Title                                    : Vietnamese
  464. Language                                 : Vietnamese
  465. Default                                  : No
  466. Forced                                   : No
  467. Text #31
  468. ID                                       : 33
  469. Format                                   : UTF-8
  470. Codec ID                                 : S_TEXT/UTF8
  471. Codec ID/Info                            : UTF-8 Plain Text
  472. Duration                                 : 1 h 29 min
  473. Bit rate                                 : 52 b/s
  474. Frame rate                               : 0.219 FPS
  475. Count of elements                        : 1183
  476. Stream size                              : 34.4 KiB (0%)
  477. Title                                    : Simplified, Chinese
  478. Language                                 : Chinese
  479. Default                                  : No
  480. Forced                                   : No
  481. Text #32
  482. ID                                       : 34
  483. Format                                   : UTF-8
  484. Codec ID                                 : S_TEXT/UTF8
  485. Codec ID/Info                            : UTF-8 Plain Text
  486. Duration                                 : 1 h 29 min
  487. Bit rate                                 : 51 b/s
  488. Frame rate                               : 0.243 FPS
  489. Count of elements                        : 1309
  490. Stream size                              : 33.9 KiB (0%)
  491. Title                                    : Traditional, Chinese
  492. Language                                 : Chinese
  493. Default                                  : No
  494. Forced                                   : No
  495. Menu
  496. 00:00:00.000                             : en:Part 01
  497. 01:28:47.450                             : en:Credits
复制代码











回复

使用道具 举报

懒得打字嘛,点击右侧快捷回复 【右侧内容,后台自定义】
您需要登录后才可以回帖 登录 | 立即加入

本版积分规则

Archiver|小黑屋| 蓝光电影网 |网站地图

Copyright © 2021 Comsenz Inc. Powered by 蓝光电影网

蓝光电影网

本站内容由用户自主分享和转载自互联网,转载目的在于传递更多信息,并不代表本网赞同其观点和对其真实性负责。

如有侵权、违反国家法律政策行为,请联系我们,我们会第一时间及时清除和处理!

举报反馈邮箱:[email protected]

快速回复 返回顶部 返回列表