找回密码

蓝光电影网

查看: 40|回复: 2

[2160p] 哈雷兄弟.Juice.1992.PROPER.2160p.UHD.BluRay.x265.10bit.HDR.DDP5.1-RARBG 5.73GB

[复制链接]
蓝光币
1084
发表于 2023-1-25 16:00:46 | 显示全部楼层 |阅读模式


◎标  题 哈雷兄弟
◎片  名 Juice
◎年  代 1992
◎产  地 美国
◎类  别 剧情 / 惊悚 / 犯罪
◎语  言 英语
◎上映日期 1992-01-17
◎IMDb评分 7/10 (27891人评价)
◎IMDb链接 https://www.imdb.com/title/tt0104573/
◎豆瓣评分 8.0/10 (461人评价)
◎豆瓣链接 https://movie.douban.com/subject/1300939/
◎片  长 95 分钟
◎导  演 厄内斯特·R·迪克森 Ernest R. Dickerson
◎编  剧 厄内斯特·R·迪克森 Ernest R. Dickerson
◎演  员 欧玛·艾普斯 Omar Epps
       图派克·夏库尔 Tupac Shakur
       Jermaine 'Huggy' Hopkins Jermaine 'Huggy' Hopkins
       卡哈利·凯恩 Khalil Kain
       Cindy Herron Cindy Herron
       塞缪尔·杰克逊 Samuel L. Jackson
       维森特·拉雷斯卡 Vincent Laresca
       Ed Lover Ed Lover
       拉塔尼娅·理查德森 LaTanya Richardson
       Erick Sermon Erick Sermon
       Parrish Smith Parrish Smith
       L.B. Williams L.B. Williams
       Kool DJ Red Alert Kool DJ Red Alert
       Norman Douglass Norman Douglass
       Lauren Jones Lauren Jones
       唐纳德·法森 Donald Faison
       奎恩·拉提法 Queen Latifah
       迈克尔·巴达鲁科 Michael Badalucco
       安东尼·特雷奇·克里斯 Anthony 'Treach' Criss
       Doctor Dré Doctor Dré
       Birdie M. Hale Birdie M. Hale
       George Gore II George Gore II
       福勒克斯·亚历山大 Flex Alexander
◎简  介
    4个哈莱姆青少年,Q, Bishop, Raheem和Steel,有一天逃学,他们发现一个老朋友在酒吧枪战中被杀。尔后,毕肖普对他的朋友们说,他们没有尊重,也没有果汁。为了获得一些,他们抢劫了街角的杂货店,可是工作发生了意想不到的改变。只要那四个朋友晓得发生了什么事,但其中一个是自擅自利。
  1. Video
  2. ID                                       : 1
  3. Format                                   : HEVC
  4. Format/Info                              : High Efficiency Video Coding
  5. Format profile                           : Main [email protected]@Main
  6. HDR format                               : SMPTE ST 2086, HDR10 compatible
  7. Codec ID                                 : V_MPEGH/ISO/HEVC
  8. Duration                                 : 1 h 34 min
  9. Bit rate                                 : 8 020 kb/s
  10. Width                                    : 3 840 pixels
  11. Height                                   : 2 160 pixels
  12. Display aspect ratio                     : 16:9
  13. Frame rate mode                          : Constant
  14. Frame rate                               : 23.976 (24000/1001) FPS
  15. Color space                              : YUV
  16. Chroma subsampling                       : 4:2:0
  17. Bit depth                                : 10 bits
  18. Bits/(Pixel*Frame)                       : 0.040
  19. Stream size                              : 5.31 GiB (93%)
  20. Writing library                          : x265 3.5+rarbg-HDR-38-20255e6:[Linux][clang 16.0.0][64 bit] 10bit
  21. Encoding settings                        : cpuid=1111039 / frame-threads=6 / wpp / no-pmode / no-pme / no-psnr / no-ssim / log-level=2 / input-csp=1 / input-res=3840x2160 / interlace=0 / total-frames=0 / level-idc=51 / high-tier=1 / uhd-bd=0 / ref=4 / no-allow-non-conformance / repeat-headers / annexb / aud / no-eob / no-eos / no-hrd / info / hash=0 / no-temporal-layers / no-open-gop / min-keyint=1 / keyint=24 / gop-lookahead=0 / bframes=4 / b-adapt=2 / b-pyramid / bframe-bias=0 / rc-lookahead=25 / lookahead-slices=4 / scenecut=40 / no-hist-scenecut / radl=0 / no-splice / no-intra-refresh / ctu=64 / min-cu-size=8 / rect / no-amp / max-tu-size=32 / tu-inter-depth=1 / tu-intra-depth=1 / limit-tu=0 / rdoq-level=2 / dynamic-rd=0.00 / no-ssim-rd / signhide / no-tskip / nr-intra=0 / nr-inter=0 / no-constrained-intra / strong-intra-smoothing / max-merge=3 / limit-refs=3 / no-limit-modes / me=3 / subme=3 / merange=57 / temporal-mvp / no-frame-dup / no-hme / weightp / no-weightb / no-analyze-src-pics / deblock=0:0 / no-sao / no-sao-non-deblock / rd=4 / selective-sao=0 / no-early-skip / rskip / no-fast-intra / no-tskip-fast / no-cu-lossless / no-b-intra / no-splitrd-skip / rdpenalty=0 / psy-rd=2.00 / psy-rdoq=1.00 / no-rd-refine / no-lossless / cbqpoffs=0 / crqpoffs=0 / rc=abr / bitrate=8000 / qcomp=0.60 / qpstep=4 / stats-write=0 / stats-read=2 / cplxblur=20.0 / qblur=0.5 / ipratio=1.40 / pbratio=1.30 / aq-mode=1 / aq-strength=1.00 / cutree / zone-count=0 / no-strict-cbr / qg-size=32 / no-rc-grain / qpmax=69 / qpmin=0 / no-const-vbv / sar=1 / overscan=0 / videoformat=5 / range=0 / colorprim=9 / transfer=16 / colormatrix=9 / chromaloc=0 / display-window=0 / master-display=G(13250,34500)B(7500,3000)R(34000,16000)WP(15635,16450)L(10000000,1) / cll=0,0 / min-luma=0 / max-luma=1023 / log2-max-poc-lsb=8 / vui-timing-info / vui-hrd-info / slices=1 / no-opt-qp-pps / no-opt-ref-list-length-pps / no-multi-pass-opt-rps / scenecut-bias=0.05 / hist-threshold=0.03 / no-opt-cu-delta-qp / no-aq-motion / hdr10 / hdr10-opt / no-dhdr10-opt / no-idr-recovery-sei / analysis-reuse-level=0 / analysis-save-reuse-level=0 / analysis-load-reuse-level=0 / scale-factor=0 / refine-intra=0 / refine-inter=0 / refine-mv=1 / refine-ctu-distortion=0 / no-limit-sao / ctu-info=0 / no-lowpass-dct / refine-analysis-type=0 / copy-pic=1 / max-ausize-factor=1.0 / no-dynamic-refine / no-single-sei / no-hevc-aq / no-svt / no-field / qp-adaptation-range=1.00 / scenecut-aware-qp=0conformance-window-offsets / right=0 / bottom=0 / decoder-max-rate=0 / no-vbv-live-multi-pass
  22. Default                                  : Yes
  23. Forced                                   : No
  24. Color range                              : Limited
  25. Color primaries                          : BT.2020
  26. Transfer characteristics                 : PQ
  27. Matrix coefficients                      : BT.2020 non-constant
  28. Mastering display color primaries        : Display P3
  29. Mastering display luminance              : min: 0.0001 cd/m2, max: 1000 cd/m2
  30. Audio
  31. ID                                       : 2
  32. Format                                   : E-AC-3
  33. Format/Info                              : Enhanced AC-3
  34. Commercial name                          : Dolby Digital Plus
  35. Codec ID                                 : A_EAC3
  36. Duration                                 : 1 h 34 min
  37. Bit rate mode                            : Constant
  38. Bit rate                                 : 640 kb/s
  39. Channel(s)                               : 6 channels
  40. Channel layout                           : L R C LFE Ls Rs
  41. Sampling rate                            : 48.0 kHz
  42. Frame rate                               : 31.250 FPS (1536 SPF)
  43. Compression mode                         : Lossy
  44. Stream size                              : 433 MiB (7%)
  45. Title                                    : English DDP 5.1
  46. Language                                 : English
  47. Service kind                             : Complete Main
  48. Default                                  : Yes
  49. Forced                                   : No
  50. Text #1
  51. ID                                       : 3
  52. Format                                   : UTF-8
  53. Codec ID                                 : S_TEXT/UTF8
  54. Codec ID/Info                            : UTF-8 Plain Text
  55. Duration                                 : 1 h 31 min
  56. Bit rate                                 : 60 b/s
  57. Frame rate                               : 0.206 FPS
  58. Count of elements                        : 1134
  59. Stream size                              : 40.9 KiB (0%)
  60. Title                                    : English SRT
  61. Language                                 : English
  62. Default                                  : Yes
  63. Forced                                   : No
  64. Text #2
  65. ID                                       : 4
  66. Format                                   : UTF-8
  67. Codec ID                                 : S_TEXT/UTF8
  68. Codec ID/Info                            : UTF-8 Plain Text
  69. Duration                                 : 1 h 31 min
  70. Bit rate                                 : 64 b/s
  71. Frame rate                               : 0.228 FPS
  72. Count of elements                        : 1256
  73. Stream size                              : 43.3 KiB (0%)
  74. Title                                    : English SDH SRT
  75. Language                                 : English
  76. Default                                  : No
  77. Forced                                   : No
  78. Menu
  79. 00:00:00.000                             : en:Chapter 01
  80. 00:02:39.409                             : en:Chapter 02
  81. 00:20:44.326                             : en:Chapter 03
  82. 00:29:45.867                             : en:Chapter 04
  83. 00:33:43.271                             : en:Chapter 05
  84. 00:41:10.384                             : en:Chapter 06
  85. 00:46:46.053                             : en:Chapter 07
  86. 00:49:25.462                             : en:Chapter 08
  87. 00:57:57.098                             : en:Chapter 09
  88. 01:13:11.637                             : en:Chapter 10
  89. 01:21:55.702                             : en:Chapter 11
  90. 01:31:32.236                             : en:Chapter 12
复制代码











回复

使用道具 举报

蓝光币
28
发表于 6 天前 | 显示全部楼层
楼主发贴辛苦了,谢谢楼主分享!我觉得蓝光电影网是注册对了!
回复 支持 反对

使用道具 举报

蓝光币
22
发表于 3 天前 | 显示全部楼层
谢谢楼主分享!
回复 支持 反对

使用道具 举报

懒得打字嘛,点击右侧快捷回复 【右侧内容,后台自定义】
您需要登录后才可以回帖 登录 | 立即加入

本版积分规则

Archiver|小黑屋| 蓝光电影网 |网站地图

Copyright © 2021 Comsenz Inc. Powered by 蓝光电影网

蓝光电影网

本站内容由用户自主分享和转载自互联网,转载目的在于传递更多信息,并不代表本网赞同其观点和对其真实性负责。

如有侵权、违反国家法律政策行为,请联系我们,我们会第一时间及时清除和处理!

举报反馈邮箱:[email protected]

快速回复 返回顶部 返回列表