找回密码

蓝光电影网

查看: 22|回复: 0

[2160p] 原钻.Uncut.Gems.2019.2160p.UHD.BluRay.x265.10bit.HDR.DDP5.1-RARBG 8.19GB

[复制链接]
蓝光币
1080
发表于 3 天前 | 显示全部楼层 |阅读模式


◎标  题 原钻
◎译  名 未成大器 / 未切割宝石 / 未切割的钻石 / 未切割的宝石 / 未琢之石(豆友译名)
◎片  名 Uncut Gems
◎年  代 2019
◎产  地 美国
◎类  别 剧情 / 犯罪
◎语  言 英语 / 希伯来语
◎上映日期 2019-08-30(特柳赖德电影节) / 2019-12-25(美国) / 2020-01-31(美国收集)
◎IMDb评分 7.4/10 (286638人评价)
◎IMDb链接 https://www.imdb.com/title/tt5727208/
◎豆瓣评分 7.2/10 (34210人评价)
◎豆瓣链接 https://movie.douban.com/subject/27045860/
◎片  长 135分钟
◎导  演 本·萨弗迪 Ben Safdie
       约书亚·萨弗迪 Joshua Safdie
◎编  剧 罗纳德·布隆斯坦 Ronald Bronstein
       本·萨弗迪 Ben Safdie
       约书亚·萨弗迪 Joshua Safdie
◎演  员 亚当·桑德勒 Adam Sandler
       茱莉娅·福克斯 Julia Fox
       凯文·加内特 Kevin Garnett
       威肯 The Weeknd
       伊迪娜·门泽尔 Idina Menzel
       乔纳森·阿兰巴耶夫 Jonathan Aranbayev
       雅各布·伊吉尔斯基 Jacob Igielski
       诺亚·费舍尔 Noa Fisher
       帕洛玛·艾尔瑟瑟 Paloma Elsesser
       勒凯斯·斯坦菲尔德 Lakeith Stanfield
       埃里克·博高森 Eric Bogosian
       基思·威廉姆斯·理查兹 Keith Williams Richards
       汤米·科米尼克 Tommy Kominik
       路易·安东尼·阿里亚斯 Louis Anthony Arias
       肖恩·林金 Sean Ringgold
       贾德·赫希 Judd Hirsch
       约翰·阿莫斯 John Amos
       布莱斯·科里根 Blaise Corrigan
       罗比·德拉费勒 Robbie DeRaffele
       安赫·道格 Anh Duong
       迈克·弗朗西萨 Mike Francesa
       庞·克莱门捷夫 Pom Klementieff
       娜塔莎·雷昂 Natasha Lyonne
       乔恩·内卡杰 Jon Necaj
       尼克·波托兰宁 Nick Poltoranin
       杰克·莱恩 Jake Ryan
       蒂尔达·斯文顿 Tilda Swinton
       科文·弗罗斯特 Kerwin Frost
◎简  介
    影片报告了一位纽约钻石店老板Howard Ratner(亚当·桑德勒 饰),他嗜赌成瘾,婚姻朝不保夕,还有一个对他不忠的女友(茱莉娅·福克斯 饰)。Howard Ratner欠Arno(埃里克·博高森 饰)钱,而打手们也一向威胁着让他还钱。当他买了一块代价数百万美圆的稀有的未切割埃塞俄比亚卵白原石,他感觉自己的霉运会就此终结。这块原石原本是筹算拿去拍卖的,但当波士顿凯尔特人超级球星凯文·加内特走进宝石店,希望借走这块石头——它可以给他在NBA总决赛上带来好运——的时辰,局势也就越发复杂了起来。
  1. Video
  2. ID                                       : 1
  3. Format                                   : HEVC
  4. Format/Info                              : High Efficiency Video Coding
  5. Format profile                           : Main [email protected]@Main
  6. HDR format                               : SMPTE ST 2086, HDR10 compatible
  7. Codec ID                                 : V_MPEGH/ISO/HEVC
  8. Duration                                 : 2 h 15 min
  9. Bit rate                                 : 8 021 kb/s
  10. Width                                    : 3 840 pixels
  11. Height                                   : 1 608 pixels
  12. Display aspect ratio                     : 2.40:1
  13. Frame rate mode                          : Constant
  14. Frame rate                               : 23.976 (24000/1001) FPS
  15. Color space                              : YUV
  16. Chroma subsampling                       : 4:2:0
  17. Bit depth                                : 10 bits
  18. Bits/(Pixel*Frame)                       : 0.054
  19. Stream size                              : 7.58 GiB (93%)
  20. Writing library                          : x265 3.5+rarbg-HDR-38-20255e6:[Linux][clang 16.0.0][64 bit] 10bit
  21. Encoding settings                        : cpuid=1111039 / frame-threads=6 / wpp / no-pmode / no-pme / no-psnr / no-ssim / log-level=2 / input-csp=1 / input-res=3840x1608 / interlace=0 / total-frames=0 / level-idc=51 / high-tier=1 / uhd-bd=0 / ref=4 / no-allow-non-conformance / repeat-headers / annexb / aud / no-eob / no-eos / no-hrd / info / hash=0 / no-temporal-layers / no-open-gop / min-keyint=1 / keyint=24 / gop-lookahead=0 / bframes=4 / b-adapt=2 / b-pyramid / bframe-bias=0 / rc-lookahead=25 / lookahead-slices=4 / scenecut=40 / no-hist-scenecut / radl=0 / no-splice / no-intra-refresh / ctu=64 / min-cu-size=8 / rect / no-amp / max-tu-size=32 / tu-inter-depth=1 / tu-intra-depth=1 / limit-tu=0 / rdoq-level=2 / dynamic-rd=0.00 / no-ssim-rd / signhide / no-tskip / nr-intra=0 / nr-inter=0 / no-constrained-intra / strong-intra-smoothing / max-merge=3 / limit-refs=3 / no-limit-modes / me=3 / subme=3 / merange=57 / temporal-mvp / no-frame-dup / no-hme / weightp / no-weightb / no-analyze-src-pics / deblock=0:0 / no-sao / no-sao-non-deblock / rd=4 / selective-sao=0 / no-early-skip / rskip / no-fast-intra / no-tskip-fast / no-cu-lossless / no-b-intra / no-splitrd-skip / rdpenalty=0 / psy-rd=2.00 / psy-rdoq=1.00 / no-rd-refine / no-lossless / cbqpoffs=0 / crqpoffs=0 / rc=abr / bitrate=8000 / qcomp=0.60 / qpstep=4 / stats-write=0 / stats-read=2 / cplxblur=20.0 / qblur=0.5 / ipratio=1.40 / pbratio=1.30 / aq-mode=1 / aq-strength=1.00 / cutree / zone-count=0 / no-strict-cbr / qg-size=32 / no-rc-grain / qpmax=69 / qpmin=0 / no-const-vbv / sar=1 / overscan=0 / videoformat=5 / range=0 / colorprim=9 / transfer=16 / colormatrix=9 / chromaloc=0 / display-window=0 / master-display=G(13250,34500)B(7500,3000)R(34000,16000)WP(15635,16450)L(10000000,1) / cll=1000,233 / min-luma=0 / max-luma=1023 / log2-max-poc-lsb=8 / vui-timing-info / vui-hrd-info / slices=1 / no-opt-qp-pps / no-opt-ref-list-length-pps / no-multi-pass-opt-rps / scenecut-bias=0.05 / hist-threshold=0.03 / no-opt-cu-delta-qp / no-aq-motion / hdr10 / hdr10-opt / no-dhdr10-opt / no-idr-recovery-sei / analysis-reuse-level=0 / analysis-save-reuse-level=0 / analysis-load-reuse-level=0 / scale-factor=0 / refine-intra=0 / refine-inter=0 / refine-mv=1 / refine-ctu-distortion=0 / no-limit-sao / ctu-info=0 / no-lowpass-dct / refine-analysis-type=0 / copy-pic=1 / max-ausize-factor=1.0 / no-dynamic-refine / no-single-sei / no-hevc-aq / no-svt / no-field / qp-adaptation-range=1.00 / scenecut-aware-qp=0conformance-window-offsets / right=0 / bottom=0 / decoder-max-rate=0 / no-vbv-live-multi-pass
  22. Default                                  : Yes
  23. Forced                                   : No
  24. Color range                              : Limited
  25. Color primaries                          : BT.2020
  26. Transfer characteristics                 : PQ
  27. Matrix coefficients                      : BT.2020 non-constant
  28. Mastering display color primaries        : Display P3
  29. Mastering display luminance              : min: 0.0001 cd/m2, max: 1000 cd/m2
  30. Maximum Content Light Level              : 1000 cd/m2
  31. Maximum Frame-Average Light Level        : 233 cd/m2
  32. Audio
  33. ID                                       : 2
  34. Format                                   : E-AC-3
  35. Format/Info                              : Enhanced AC-3
  36. Commercial name                          : Dolby Digital Plus
  37. Codec ID                                 : A_EAC3
  38. Duration                                 : 2 h 15 min
  39. Bit rate mode                            : Constant
  40. Bit rate                                 : 640 kb/s
  41. Channel(s)                               : 6 channels
  42. Channel layout                           : L R C LFE Ls Rs
  43. Sampling rate                            : 48.0 kHz
  44. Frame rate                               : 31.250 FPS (1536 SPF)
  45. Compression mode                         : Lossy
  46. Stream size                              : 619 MiB (7%)
  47. Title                                    : English DDP 5.1
  48. Language                                 : English
  49. Service kind                             : Complete Main
  50. Default                                  : Yes
  51. Forced                                   : No
  52. Text #1
  53. ID                                       : 3
  54. Format                                   : UTF-8
  55. Codec ID                                 : S_TEXT/UTF8
  56. Codec ID/Info                            : UTF-8 Plain Text
  57. Duration                                 : 2 h 14 min
  58. Bit rate                                 : 95 b/s
  59. Frame rate                               : 0.284 FPS
  60. Count of elements                        : 2286
  61. Stream size                              : 93.9 KiB (0%)
  62. Title                                    : English SRT
  63. Language                                 : English
  64. Default                                  : Yes
  65. Forced                                   : No
  66. Text #2
  67. ID                                       : 4
  68. Format                                   : UTF-8
  69. Codec ID                                 : S_TEXT/UTF8
  70. Codec ID/Info                            : UTF-8 Plain Text
  71. Duration                                 : 2 h 14 min
  72. Bit rate                                 : 101 b/s
  73. Frame rate                               : 0.298 FPS
  74. Count of elements                        : 2406
  75. Stream size                              : 100 KiB (0%)
  76. Title                                    : English SDH SRT
  77. Language                                 : English
  78. Default                                  : No
  79. Forced                                   : No
  80. Menu
  81. 00:00:00.000                             : en:Chapter 01
  82. 00:08:36.641                             : en:Chapter 02
  83. 00:18:38.283                             : en:Chapter 03
  84. 00:23:35.288                             : en:Chapter 04
  85. 00:32:07.842                             : en:Chapter 05
  86. 00:36:17.758                             : en:Chapter 06
  87. 00:40:44.859                             : en:Chapter 07
  88. 00:53:52.896                             : en:Chapter 08
  89. 00:57:42.333                             : en:Chapter 09
  90. 01:03:20.838                             : en:Chapter 10
  91. 01:12:37.686                             : en:Chapter 11
  92. 01:26:40.862                             : en:Chapter 12
  93. 01:31:15.094                             : en:Chapter 13
  94. 01:42:57.504                             : en:Chapter 14
  95. 01:49:56.965                             : en:Chapter 15
  96. 01:55:19.579                             : en:Chapter 16
复制代码











回复

使用道具 举报

懒得打字嘛,点击右侧快捷回复 【右侧内容,后台自定义】
您需要登录后才可以回帖 登录 | 立即加入

本版积分规则

Archiver|小黑屋| 蓝光电影网 |网站地图

Copyright © 2021 Comsenz Inc. Powered by 蓝光电影网

蓝光电影网

本站内容由用户自主分享和转载自互联网,转载目的在于传递更多信息,并不代表本网赞同其观点和对其真实性负责。

如有侵权、违反国家法律政策行为,请联系我们,我们会第一时间及时清除和处理!

举报反馈邮箱:[email protected]

快速回复 返回顶部 返回列表