找回密码

蓝光电影网

查看: 28|回复: 0

[2160p] 760号犯人.The.Mauritanian.2021.2160p.UHD.BluRay.x265.10bit.HDR.DDP5.1-RARBG 7.83GB

[复制链接]
蓝光币
1080
发表于 3 天前 | 显示全部楼层 |阅读模式


◎标  题 760号监犯
◎译  名 诬罪审判(港) / 失控的审判(台) / 毛里塔尼亚人 / 760号犯人 / 第760号犯人 / Guantanamo Diary / Prisoner 760
◎片  名 The Mauritanian
◎年  代 2021
◎产  地 英国 / 美国
◎类  别 剧情 / 惊悚 / 列传
◎语  言 英语 / 法语 / 阿拉伯语 / 德语
◎上映日期 2022-08-23(中国大陆) / 2021-02-12(美国)
◎IMDb评分 7.4/10 (52701人评价)
◎IMDb链接 https://www.imdb.com/title/tt4761112/
◎豆瓣评分 7.3/10 (12970人评价)
◎豆瓣链接 https://movie.douban.com/subject/26996524/
◎片  长 129分钟 / 125分钟(中国大陆)
◎导  演 凯文·麦克唐纳 Kevin Macdonald
◎编  剧 迈克尔·布朗纳 Michael Bronner
       罗里·海恩斯 Rory Haines
       苏哈·诺什瓦尼 Sohrab Noshirvani
       穆罕默德·乌尔德·萨拉希 Mohamedou Ould Salahi
       拉里·西姆斯 Larry Siems
◎演  员 塔哈·拉希姆 Tahar Rahim
       朱迪·福斯特 Jodie Foster
       本尼迪克特·康伯巴奇 Benedict Cumberbatch
       扎克瑞·莱维 Zachary Levi
       谢琳·伍德蕾 Shailene Woodley
       沙莫·阿斯玛尼 Saamer Usmani
       克里·约翰逊 Corey Johnson
       马修·马什 Matthew Marsh
       大卫·芬恩 David Fynn
       安德烈·雅各布斯 Andre Jacobs
       兰利·柯克伍德 Langley Kirkwood
       史蒂夫·马克 Stevel Marc
       罗伯特·霍布斯 Robert Hobbs
       梅丽莎·海登 Melissa Haiden
       阿拉·萨菲 Alaa Safi
       埃文·亨斯特 Evan Hengst
       达伦-迈耶 Darron Meyer
       弗朗西斯·乔勒 Francis Chouler
       克莱顿·博伊德 Clayton Boyd
       南希·霍兰德 Nancy Hollander
◎简  介
    影片改编自Mohamedou Ould Slahi的回忆录《关塔那摩日志》,报告Slahi(塔哈·拉希姆 饰)被美国政府俘虏,在毫无控告与判决的情况下被关进了牢狱,承受长达14年禁锢与熬煎。在行将落空希望之际,Slahi寻得辩解律师南希·霍兰德尔(朱迪·福斯特 饰)与助手特瑞·邓肯(谢琳·伍德蕾 饰)的帮助,他们在面临无数障碍的情况下,一同追求正义。在富有争议的主张及斯图尔特·库奇中校(本尼迪克特·康伯巴奇 饰)揭穿的证据下,一个使人震动的诡计暴露水面。
  1. Video
  2. ID                                       : 1
  3. Format                                   : HEVC
  4. Format/Info                              : High Efficiency Video Coding
  5. Format profile                           : Main [email protected]@Main
  6. HDR format                               : SMPTE ST 2086, HDR10 compatible
  7. Codec ID                                 : V_MPEGH/ISO/HEVC
  8. Duration                                 : 2 h 9 min
  9. Bit rate                                 : 8 023 kb/s
  10. Width                                    : 3 840 pixels
  11. Height                                   : 2 076 pixels
  12. Display aspect ratio                     : 1.85:1
  13. Frame rate mode                          : Constant
  14. Frame rate                               : 23.976 (24000/1001) FPS
  15. Color space                              : YUV
  16. Chroma subsampling                       : 4:2:0
  17. Bit depth                                : 10 bits
  18. Bits/(Pixel*Frame)                       : 0.042
  19. Stream size                              : 7.25 GiB (93%)
  20. Writing library                          : x265 3.5+rarbg-HDR-38-20255e6:[Linux][clang 16.0.0][64 bit] 10bit
  21. Encoding settings                        : cpuid=1111039 / frame-threads=6 / wpp / no-pmode / no-pme / no-psnr / no-ssim / log-level=2 / input-csp=1 / input-res=3840x2076 / interlace=0 / total-frames=0 / level-idc=51 / high-tier=1 / uhd-bd=0 / ref=4 / no-allow-non-conformance / repeat-headers / annexb / aud / no-eob / no-eos / no-hrd / info / hash=0 / no-temporal-layers / no-open-gop / min-keyint=1 / keyint=24 / gop-lookahead=0 / bframes=4 / b-adapt=2 / b-pyramid / bframe-bias=0 / rc-lookahead=25 / lookahead-slices=4 / scenecut=40 / no-hist-scenecut / radl=0 / no-splice / no-intra-refresh / ctu=64 / min-cu-size=8 / rect / no-amp / max-tu-size=32 / tu-inter-depth=1 / tu-intra-depth=1 / limit-tu=0 / rdoq-level=2 / dynamic-rd=0.00 / no-ssim-rd / signhide / no-tskip / nr-intra=0 / nr-inter=0 / no-constrained-intra / strong-intra-smoothing / max-merge=3 / limit-refs=3 / no-limit-modes / me=3 / subme=3 / merange=57 / temporal-mvp / no-frame-dup / no-hme / weightp / no-weightb / no-analyze-src-pics / deblock=0:0 / no-sao / no-sao-non-deblock / rd=4 / selective-sao=0 / no-early-skip / rskip / no-fast-intra / no-tskip-fast / no-cu-lossless / no-b-intra / no-splitrd-skip / rdpenalty=0 / psy-rd=2.00 / psy-rdoq=1.00 / no-rd-refine / no-lossless / cbqpoffs=0 / crqpoffs=0 / rc=abr / bitrate=8000 / qcomp=0.60 / qpstep=4 / stats-write=0 / stats-read=2 / cplxblur=20.0 / qblur=0.5 / ipratio=1.40 / pbratio=1.30 / aq-mode=1 / aq-strength=1.00 / cutree / zone-count=0 / no-strict-cbr / qg-size=32 / no-rc-grain / qpmax=69 / qpmin=0 / no-const-vbv / sar=1 / overscan=0 / videoformat=5 / range=0 / colorprim=9 / transfer=16 / colormatrix=9 / chromaloc=0 / display-window=0 / master-display=G(8500,39850)B(6550,2300)R(35400,14600)WP(15635,16450)L(10000000,50) / cll=594,109 / min-luma=0 / max-luma=1023 / log2-max-poc-lsb=8 / vui-timing-info / vui-hrd-info / slices=1 / no-opt-qp-pps / no-opt-ref-list-length-pps / no-multi-pass-opt-rps / scenecut-bias=0.05 / hist-threshold=0.03 / no-opt-cu-delta-qp / no-aq-motion / hdr10 / hdr10-opt / no-dhdr10-opt / no-idr-recovery-sei / analysis-reuse-level=0 / analysis-save-reuse-level=0 / analysis-load-reuse-level=0 / scale-factor=0 / refine-intra=0 / refine-inter=0 / refine-mv=1 / refine-ctu-distortion=0 / no-limit-sao / ctu-info=0 / no-lowpass-dct / refine-analysis-type=0 / copy-pic=1 / max-ausize-factor=1.0 / no-dynamic-refine / no-single-sei / no-hevc-aq / no-svt / no-field / qp-adaptation-range=1.00 / scenecut-aware-qp=0conformance-window-offsets / right=0 / bottom=0 / decoder-max-rate=0 / no-vbv-live-multi-pass
  22. Default                                  : Yes
  23. Forced                                   : No
  24. Color range                              : Limited
  25. Color primaries                          : BT.2020
  26. Transfer characteristics                 : PQ
  27. Matrix coefficients                      : BT.2020 non-constant
  28. Mastering display color primaries        : BT.2020
  29. Mastering display luminance              : min: 0.0050 cd/m2, max: 1000 cd/m2
  30. Maximum Content Light Level              : 594 cd/m2
  31. Maximum Frame-Average Light Level        : 109 cd/m2
  32. Audio
  33. ID                                       : 2
  34. Format                                   : E-AC-3
  35. Format/Info                              : Enhanced AC-3
  36. Commercial name                          : Dolby Digital Plus
  37. Codec ID                                 : A_EAC3
  38. Duration                                 : 2 h 9 min
  39. Bit rate mode                            : Constant
  40. Bit rate                                 : 640 kb/s
  41. Channel(s)                               : 6 channels
  42. Channel layout                           : L R C LFE Ls Rs
  43. Sampling rate                            : 48.0 kHz
  44. Frame rate                               : 31.250 FPS (1536 SPF)
  45. Compression mode                         : Lossy
  46. Stream size                              : 592 MiB (7%)
  47. Title                                    : English DDP 5.1
  48. Language                                 : English
  49. Service kind                             : Complete Main
  50. Default                                  : Yes
  51. Forced                                   : No
  52. Text #1
  53. ID                                       : 3
  54. Format                                   : UTF-8
  55. Codec ID                                 : S_TEXT/UTF8
  56. Codec ID/Info                            : UTF-8 Plain Text
  57. Duration                                 : 2 h 8 min
  58. Bit rate                                 : 6 b/s
  59. Frame rate                               : 0.030 FPS
  60. Count of elements                        : 229
  61. Stream size                              : 6.48 KiB (0%)
  62. Title                                    : English Forced SRT
  63. Language                                 : English
  64. Default                                  : No
  65. Forced                                   : Yes
  66. Text #2
  67. ID                                       : 4
  68. Format                                   : UTF-8
  69. Codec ID                                 : S_TEXT/UTF8
  70. Codec ID/Info                            : UTF-8 Plain Text
  71. Duration                                 : 2 h 8 min
  72. Bit rate                                 : 60 b/s
  73. Frame rate                               : 0.218 FPS
  74. Count of elements                        : 1681
  75. Stream size                              : 57.2 KiB (0%)
  76. Title                                    : English SRT
  77. Language                                 : English
  78. Default                                  : Yes
  79. Forced                                   : No
  80. Text #3
  81. ID                                       : 5
  82. Format                                   : UTF-8
  83. Codec ID                                 : S_TEXT/UTF8
  84. Codec ID/Info                            : UTF-8 Plain Text
  85. Duration                                 : 2 h 8 min
  86. Bit rate                                 : 66 b/s
  87. Frame rate                               : 0.239 FPS
  88. Count of elements                        : 1848
  89. Stream size                              : 62.6 KiB (0%)
  90. Title                                    : English SDH SRT
  91. Language                                 : English
  92. Default                                  : No
  93. Forced                                   : No
  94. Menu
  95. 00:00:00.000                             : en:Chapter 01
  96. 00:05:54.312                             : en:Chapter 02
  97. 00:13:11.207                             : en:Chapter 03
  98. 00:23:20.482                             : en:Chapter 04
  99. 00:28:50.895                             : en:Chapter 05
  100. 00:37:40.675                             : en:Chapter 06
  101. 00:44:12.358                             : en:Chapter 07
  102. 00:54:47.701                             : en:Chapter 08
  103. 01:02:53.186                             : en:Chapter 09
  104. 01:12:17.791                             : en:Chapter 10
  105. 01:21:22.669                             : en:Chapter 11
  106. 01:30:59.912                             : en:Chapter 12
  107. 01:39:35.469                             : en:Chapter 13
  108. 01:45:45.881                             : en:Chapter 14
  109. 01:53:48.071                             : en:Chapter 15
  110. 02:03:57.430                             : en:Chapter 16
复制代码











回复

使用道具 举报

懒得打字嘛,点击右侧快捷回复 【右侧内容,后台自定义】
您需要登录后才可以回帖 登录 | 立即加入

本版积分规则

Archiver|小黑屋| 蓝光电影网 |网站地图

Copyright © 2021 Comsenz Inc. Powered by 蓝光电影网

蓝光电影网

本站内容由用户自主分享和转载自互联网,转载目的在于传递更多信息,并不代表本网赞同其观点和对其真实性负责。

如有侵权、违反国家法律政策行为,请联系我们,我们会第一时间及时清除和处理!

举报反馈邮箱:[email protected]

快速回复 返回顶部 返回列表