找回密码

蓝光电影网

查看: 20|回复: 0

[2160p] 警醒.Jolt.2021.2160p.UHD.BluRay.x265.10bit.HDR.DDP5.1-RARBG 5.54GB

[复制链接]
蓝光币
1080
发表于 3 天前 | 显示全部楼层 |阅读模式


◎标  题 警醒
◎译  名 电流女侠
◎片  名 Jolt
◎年  代 2021
◎产  地 美国
◎类  别 行动 / 惊悚
◎语  言 英语
◎上映日期 2021-07-23(美国)
◎IMDb评分 5.6/10 (31611人评价)
◎IMDb链接 https://www.imdb.com/title/tt10228134/
◎豆瓣评分 5.6/10 (3278人评价)
◎豆瓣链接 https://movie.douban.com/subject/33423676/
◎片  长 91分钟
◎导  演 谭雅·维克斯勒 Tanya Wexler
◎演  员 凯特·贝金赛尔 Kate Beckinsale
       斯坦利·图齐 Stanley Tucci
       鲍比·坎纳瓦尔 Bobby Cannavale
       苏珊·萨兰登 Susan Sarandon
       杰·科特尼 Jai Courtney
       大卫·布拉德利 David Bradley
       拉弗恩·考克斯 Laverne Cox
       克里斯蒂安·布拉辛顿 Christian Brassington
       奥利·普费弗 Ori Pfeffer
       康斯坦丁·格雷戈里 Constantine Gregory
       内森·库珀 Nathan Cooper
       哈里·阿尼奇金 Harry Anichkin
       皮埃尔·伯格曼 Pierre Bergman
◎简  介
  琳迪这个标致滑稽的女人有一个疾苦的奥秘:由于毕生的、罕有的神经紊乱,她履历了阵发性的狂怒杀人感动,处理方式只要用特别电极装配电自己。在一个惧怕她的希奇状态的天下里,她没法找到爱和联系,终极她信赖了一个汉子,并爱上了他,却发现第二天他被谋杀了。                                    
                                琳迪感应心碎和愤慨,她起头了一个复仇值拉满的使命,寻觅幕后杀手,与此同时,她也被差人作为这个案子的头号怀疑犯追捕着。
  1. Video
  2. ID                                       : 1
  3. Format                                   : HEVC
  4. Format/Info                              : High Efficiency Video Coding
  5. Format profile                           : Main [email protected]@Main
  6. HDR format                               : SMPTE ST 2086, HDR10 compatible
  7. Codec ID                                 : V_MPEGH/ISO/HEVC
  8. Duration                                 : 1 h 31 min
  9. Bit rate                                 : 8 022 kb/s
  10. Width                                    : 3 840 pixels
  11. Height                                   : 1 612 pixels
  12. Display aspect ratio                     : 2.40:1
  13. Frame rate mode                          : Constant
  14. Frame rate                               : 24.000 FPS
  15. Color space                              : YUV
  16. Chroma subsampling                       : 4:2:0
  17. Bit depth                                : 10 bits
  18. Bits/(Pixel*Frame)                       : 0.054
  19. Stream size                              : 5.13 GiB (93%)
  20. Writing library                          : x265 3.5+rarbg-HDR-38-20255e6:[Linux][clang 16.0.0][64 bit] 10bit
  21. Encoding settings                        : cpuid=1111039 / frame-threads=6 / wpp / no-pmode / no-pme / no-psnr / no-ssim / log-level=2 / input-csp=1 / input-res=3840x1612 / interlace=0 / total-frames=0 / level-idc=51 / high-tier=1 / uhd-bd=0 / ref=4 / no-allow-non-conformance / repeat-headers / annexb / aud / no-eob / no-eos / no-hrd / info / hash=0 / no-temporal-layers / no-open-gop / min-keyint=1 / keyint=24 / gop-lookahead=0 / bframes=4 / b-adapt=2 / b-pyramid / bframe-bias=0 / rc-lookahead=25 / lookahead-slices=4 / scenecut=40 / no-hist-scenecut / radl=0 / no-splice / no-intra-refresh / ctu=64 / min-cu-size=8 / rect / no-amp / max-tu-size=32 / tu-inter-depth=1 / tu-intra-depth=1 / limit-tu=0 / rdoq-level=2 / dynamic-rd=0.00 / no-ssim-rd / signhide / no-tskip / nr-intra=0 / nr-inter=0 / no-constrained-intra / strong-intra-smoothing / max-merge=3 / limit-refs=3 / no-limit-modes / me=3 / subme=3 / merange=57 / temporal-mvp / no-frame-dup / no-hme / weightp / no-weightb / no-analyze-src-pics / deblock=0:0 / no-sao / no-sao-non-deblock / rd=4 / selective-sao=0 / no-early-skip / rskip / no-fast-intra / no-tskip-fast / no-cu-lossless / no-b-intra / no-splitrd-skip / rdpenalty=0 / psy-rd=2.00 / psy-rdoq=1.00 / no-rd-refine / no-lossless / cbqpoffs=0 / crqpoffs=0 / rc=abr / bitrate=8000 / qcomp=0.60 / qpstep=4 / stats-write=0 / stats-read=2 / cplxblur=20.0 / qblur=0.5 / ipratio=1.40 / pbratio=1.30 / aq-mode=1 / aq-strength=1.00 / cutree / zone-count=0 / no-strict-cbr / qg-size=32 / no-rc-grain / qpmax=69 / qpmin=0 / no-const-vbv / sar=1 / overscan=0 / videoformat=5 / range=0 / colorprim=9 / transfer=16 / colormatrix=9 / chromaloc=0 / display-window=0 / master-display=G(8500,39850)B(6550,2300)R(35400,14600)WP(15635,16450)L(10000000,50) / cll=6733,626 / min-luma=0 / max-luma=1023 / log2-max-poc-lsb=8 / vui-timing-info / vui-hrd-info / slices=1 / no-opt-qp-pps / no-opt-ref-list-length-pps / no-multi-pass-opt-rps / scenecut-bias=0.05 / hist-threshold=0.03 / no-opt-cu-delta-qp / no-aq-motion / hdr10 / hdr10-opt / no-dhdr10-opt / no-idr-recovery-sei / analysis-reuse-level=0 / analysis-save-reuse-level=0 / analysis-load-reuse-level=0 / scale-factor=0 / refine-intra=0 / refine-inter=0 / refine-mv=1 / refine-ctu-distortion=0 / no-limit-sao / ctu-info=0 / no-lowpass-dct / refine-analysis-type=0 / copy-pic=1 / max-ausize-factor=1.0 / no-dynamic-refine / no-single-sei / no-hevc-aq / no-svt / no-field / qp-adaptation-range=1.00 / scenecut-aware-qp=0conformance-window-offsets / right=0 / bottom=0 / decoder-max-rate=0 / no-vbv-live-multi-pass
  22. Default                                  : Yes
  23. Forced                                   : No
  24. Color range                              : Limited
  25. Color primaries                          : BT.2020
  26. Transfer characteristics                 : PQ
  27. Matrix coefficients                      : BT.2020 non-constant
  28. Mastering display color primaries        : BT.2020
  29. Mastering display luminance              : min: 0.0050 cd/m2, max: 1000 cd/m2
  30. Maximum Content Light Level              : 6733 cd/m2
  31. Maximum Frame-Average Light Level        : 626 cd/m2
  32. Audio
  33. ID                                       : 2
  34. Format                                   : E-AC-3
  35. Format/Info                              : Enhanced AC-3
  36. Commercial name                          : Dolby Digital Plus
  37. Codec ID                                 : A_EAC3
  38. Duration                                 : 1 h 31 min
  39. Bit rate mode                            : Constant
  40. Bit rate                                 : 640 kb/s
  41. Channel(s)                               : 6 channels
  42. Channel layout                           : L R C LFE Ls Rs
  43. Sampling rate                            : 48.0 kHz
  44. Frame rate                               : 31.250 FPS (1536 SPF)
  45. Compression mode                         : Lossy
  46. Stream size                              : 419 MiB (7%)
  47. Title                                    : English DDP 5.1
  48. Language                                 : English
  49. Service kind                             : Complete Main
  50. Default                                  : Yes
  51. Forced                                   : No
  52. Text #1
  53. ID                                       : 3
  54. Format                                   : UTF-8
  55. Codec ID                                 : S_TEXT/UTF8
  56. Codec ID/Info                            : UTF-8 Plain Text
  57. Duration                                 : 1 h 25 min
  58. Bit rate                                 : 61 b/s
  59. Frame rate                               : 0.261 FPS
  60. Count of elements                        : 1333
  61. Stream size                              : 38.3 KiB (0%)
  62. Title                                    : English SRT
  63. Language                                 : English
  64. Default                                  : Yes
  65. Forced                                   : No
  66. Text #2
  67. ID                                       : 4
  68. Format                                   : UTF-8
  69. Codec ID                                 : S_TEXT/UTF8
  70. Codec ID/Info                            : UTF-8 Plain Text
  71. Duration                                 : 1 h 25 min
  72. Bit rate                                 : 69 b/s
  73. Frame rate                               : 0.311 FPS
  74. Count of elements                        : 1589
  75. Stream size                              : 43.3 KiB (0%)
  76. Title                                    : English SDH SRT
  77. Language                                 : English
  78. Default                                  : No
  79. Forced                                   : No
  80. Menu
  81. 00:00:00.000                             : en:Chapter 01
  82. 00:11:20.875                             : en:Chapter 02
  83. 00:22:42.166                             : en:Chapter 03
  84. 00:32:00.583                             : en:Chapter 04
  85. 00:44:03.083                             : en:Chapter 05
  86. 00:51:41.333                             : en:Chapter 06
  87. 01:03:19.333                             : en:Chapter 07
  88. 01:15:45.250                             : en:Chapter 08
  89. 01:25:10.875                             : en:Chapter 09
复制代码











回复

使用道具 举报

懒得打字嘛,点击右侧快捷回复 【右侧内容,后台自定义】
您需要登录后才可以回帖 登录 | 立即加入

本版积分规则

Archiver|小黑屋| 蓝光电影网 |网站地图

Copyright © 2021 Comsenz Inc. Powered by 蓝光电影网

蓝光电影网

本站内容由用户自主分享和转载自互联网,转载目的在于传递更多信息,并不代表本网赞同其观点和对其真实性负责。

如有侵权、违反国家法律政策行为,请联系我们,我们会第一时间及时清除和处理!

举报反馈邮箱:[email protected]

快速回复 返回顶部 返回列表