找回密码

蓝光电影网

查看: 307|回复: 6

[2160p-WEB] 梅根.M3GAN.2023.2160p.MA.WEB-DL.x265.10bit.HDR.DDP5.1.Atmos-CM 17.85GB

[复制链接]
蓝光币
1080
发表于 3 天前 | 显示全部楼层 |阅读模式


◎标  题 梅根
◎译  名 室友梅根(台) / 野生杀姬(港) / 窒友梅根 / 玩偶梅根 / M3gan
◎片  名 M3GAN
◎年  代 2022
◎产  地 美国
◎类  别 科幻 / 惊悚 / 可骇
◎语  言 英语
◎上映日期 2022-12-28(法国) / 2023-01-06(美国)
◎IMDb评分 6.6/10 (18866人评价)
◎IMDb链接 https://www.imdb.com/title/tt8760708/
◎豆瓣链接 https://movie.douban.com/subject/30277290/
◎片  长 102分钟
◎简  介
    “她不但是个玩具,而是这个家的一份子。”                                                                      梅根(M3GAN)是一个具有高度野生智能、栩栩如生的玩具人偶,被设想成小孩子最好的玩伴和令家长最安心的盟友。这款玩具人偶由一位玩具公司精采的机械人专家洁玛(艾莉森·威廉姆斯 饰)经心设想,梅根可以借由凝听以及观察进修人类行为,而且成为她照顾的小孩的朋友、教员、玩伴和庇护者。                                                                      当洁玛忽然成为她落空双亲的八岁侄女凯蒂(维奥莱特·麦格劳 饰)的监护人以后,洁玛并不肯定也没有预备好可以成为一个好的家长,加上她的工作压力很是庞大,因而就决议将她设想的野生智能玩具人偶梅根和凯蒂配对,试图处理照顾凯蒂这个孤儿和纾解她工作压力这两个题目,可是她的这个决议却形成没法想像的严重结果。
  1. Video
  2. ID                                       : 1
  3. Format                                   : HEVC
  4. Format/Info                              : High Efficiency Video Coding
  5. Format profile                           : Main [email protected]@High
  6. HDR format                               : Dolby Vision, Version 1.0, dvhe.08.06, BL+RPU, HDR10 compatible / SMPTE ST 2086, HDR10 compatible
  7. Codec ID                                 : V_MPEGH/ISO/HEVC
  8. Duration                                 : 1 h 41 min
  9. Bit rate                                 : 24.3 Mb/s
  10. Width                                    : 3 840 pixels
  11. Height                                   : 2 160 pixels
  12. Display aspect ratio                     : 16:9
  13. Frame rate mode                          : Constant
  14. Frame rate                               : 23.976 (24000/1001) FPS
  15. Color space                              : YUV
  16. Chroma subsampling                       : 4:2:0 (Type 2)
  17. Bit depth                                : 10 bits
  18. Bits/(Pixel*Frame)                       : 0.122
  19. Stream size                              : 17.3 GiB (97%)
  20. Language                                 : English
  21. Default                                  : Yes
  22. Forced                                   : No
  23. Color range                              : Limited
  24. Color primaries                          : BT.2020
  25. Transfer characteristics                 : PQ
  26. Matrix coefficients                      : BT.2020 non-constant
  27. Mastering display color primaries        : BT.2020
  28. Mastering display luminance              : min: 0.0500 cd/m2, max: 1000 cd/m2
  29. Maximum Content Light Level              : 629 cd/m2
  30. Maximum Frame-Average Light Level        : 164 cd/m2
  31. Audio
  32. ID                                       : 2
  33. Format                                   : E-AC-3 JOC
  34. Format/Info                              : Enhanced AC-3 with Joint Object Coding
  35. Commercial name                          : Dolby Digital Plus with Dolby Atmos
  36. Codec ID                                 : A_EAC3
  37. Duration                                 : 1 h 41 min
  38. Bit rate mode                            : Constant
  39. Bit rate                                 : 768 kb/s
  40. Channel(s)                               : 6 channels
  41. Channel layout                           : L R C LFE Ls Rs
  42. Sampling rate                            : 48.0 kHz
  43. Frame rate                               : 31.250 FPS (1536 SPF)
  44. Compression mode                         : Lossy
  45. Stream size                              : 560 MiB (3%)
  46. Language                                 : English
  47. Service kind                             : Complete Main
  48. Default                                  : Yes
  49. Forced                                   : No
  50. Complexity index                         : 16
  51. Number of dynamic objects                : 15
  52. Bed channel count                        : 1 channel
  53. Bed channel configuration                : LFE
  54. Text #1
  55. ID                                       : 3
  56. Format                                   : UTF-8
  57. Codec ID                                 : S_TEXT/UTF8
  58. Codec ID/Info                            : UTF-8 Plain Text
  59. Duration                                 : 1 h 41 min
  60. Bit rate                                 : 76 b/s
  61. Frame rate                               : 0.306 FPS
  62. Count of elements                        : 1870
  63. Stream size                              : 57.4 KiB (0%)
  64. Title                                    : SDH
  65. Language                                 : English
  66. Default                                  : No
  67. Forced                                   : No
  68. Text #2
  69. ID                                       : 4
  70. Format                                   : UTF-8
  71. Codec ID                                 : S_TEXT/UTF8
  72. Codec ID/Info                            : UTF-8 Plain Text
  73. Duration                                 : 1 h 41 min
  74. Bit rate                                 : 69 b/s
  75. Frame rate                               : 0.271 FPS
  76. Count of elements                        : 1648
  77. Stream size                              : 51.4 KiB (0%)
  78. Language                                 : English
  79. Default                                  : No
  80. Forced                                   : No
复制代码











回复

使用道具 举报

蓝光币
144
发表于 前天 11:44 | 显示全部楼层

我看不错噢 谢谢楼主!蓝光电影网越来越好!
回复 支持 反对

使用道具 举报

蓝光币
44
发表于 前天 14:10 | 显示全部楼层
谢谢楼主!
回复

使用道具 举报

蓝光币
29
发表于 前天 23:36 | 显示全部楼层

既然你诚信诚意的推荐了,那我就勉为其难的看看吧!蓝光电影网不走平凡路。
回复 支持 反对

使用道具 举报

蓝光币
250
发表于 昨天 12:41 | 显示全部楼层

楼主太厉害了!楼主,电影应该很好看我觉得蓝光电影网真是个好地方!
回复 支持 反对

使用道具 举报

蓝光币
104
发表于 昨天 20:57 | 显示全部楼层

这个帖子不回对不起自己!我想我是一天也不能离开蓝光电影网。
回复 支持 反对

使用道具 举报

蓝光币
3730
发表于 5 小时前 | 显示全部楼层
楼主发贴辛苦了,谢谢楼主分享!我觉得蓝光电影网是注册对了!
回复 支持 反对

使用道具 举报

懒得打字嘛,点击右侧快捷回复 【右侧内容,后台自定义】
您需要登录后才可以回帖 登录 | 立即加入

本版积分规则

Archiver|小黑屋| 蓝光电影网 |网站地图

Copyright © 2021 Comsenz Inc. Powered by 蓝光电影网

蓝光电影网

本站内容由用户自主分享和转载自互联网,转载目的在于传递更多信息,并不代表本网赞同其观点和对其真实性负责。

如有侵权、违反国家法律政策行为,请联系我们,我们会第一时间及时清除和处理!

举报反馈邮箱:[email protected]

快速回复 返回顶部 返回列表