找回密码

蓝光电影网

查看: 808|回复: 15

[2160p-WEB] 渗透.Transfusion.2023.2160p.STAN.WEB-DL.x265.10bit.HDR.DDP5.1-playWEB 9.19GB

[复制链接]
蓝光币
1084
发表于 2023-1-25 16:09:47 | 显示全部楼层 |阅读模式


◎标  题 渗透
◎片  名 Transfusion
◎年  代 2023
◎产  地 美国
◎类  别 惊悚
◎语  言 英语
◎IMDb评分 6.8/10 (94人评价)
◎IMDb链接 https://www.imdb.com/title/tt14873054/
◎豆瓣链接 https://movie.douban.com/subject/35500480/
◎简  介
    萨姆·沃辛顿(《阿凡达》)和菲比·托金(《吸血鬼日志》)将主演惊悚片《渗透》(Transfusion)。                                                                      本片由演员马特·纳夫莱(《血战钢锯岭》《中心人师长》)献出导演首秀,他也将出演。报告一位前特种军队奸细为了不让他的独子被带走,而进入犯罪黑社会的天下中。
  1. Video
  2. ID                                       : 1
  3. Format                                   : HEVC
  4. Format/Info                              : High Efficiency Video Coding
  5. Format profile                           : Main [email protected]@High
  6. HDR format                               : SMPTE ST 2086, HDR10 compatible
  7. Codec ID                                 : V_MPEGH/ISO/HEVC
  8. Duration                                 : 1 h 45 min
  9. Bit rate                                 : 12.1 Mb/s
  10. Width                                    : 3 840 pixels
  11. Height                                   : 2 160 pixels
  12. Display aspect ratio                     : 16:9
  13. Frame rate mode                          : Constant
  14. Frame rate                               : 24.000 FPS
  15. Color space                              : YUV
  16. Chroma subsampling                       : 4:2:0
  17. Bit depth                                : 10 bits
  18. Bits/(Pixel*Frame)                       : 0.061
  19. Stream size                              : 8.90 GiB (97%)
  20. Language                                 : English
  21. Default                                  : Yes
  22. Forced                                   : No
  23. Color range                              : Limited
  24. Color primaries                          : BT.2020
  25. Transfer characteristics                 : PQ
  26. Matrix coefficients                      : BT.2020 non-constant
  27. Mastering display color primaries        : BT.2020
  28. Mastering display luminance              : min: 0.0001 cd/m2, max: 1000 cd/m2
  29. Audio
  30. ID                                       : 2
  31. Format                                   : E-AC-3
  32. Format/Info                              : Enhanced AC-3
  33. Commercial name                          : Dolby Digital Plus
  34. Codec ID                                 : A_EAC3
  35. Duration                                 : 1 h 45 min
  36. Bit rate mode                            : Constant
  37. Bit rate                                 : 384 kb/s
  38. Channel(s)                               : 6 channels
  39. Channel layout                           : L R C LFE Ls Rs
  40. Sampling rate                            : 48.0 kHz
  41. Frame rate                               : 31.250 FPS (1536 SPF)
  42. Compression mode                         : Lossy
  43. Stream size                              : 290 MiB (3%)
  44. Language                                 : English-x-main-surround
  45. Service kind                             : Complete Main
  46. Default                                  : Yes
  47. Forced                                   : No
  48. Text
  49. ID                                       : 3
  50. Format                                   : UTF-8
  51. Codec ID                                 : S_TEXT/UTF8
  52. Codec ID/Info                            : UTF-8 Plain Text
  53. Duration                                 : 1 h 37 min
  54. Bit rate                                 : 43 b/s
  55. Frame rate                               : 0.215 FPS
  56. Count of elements                        : 1258
  57. Stream size                              : 31.0 KiB (0%)
  58. Title                                    : CC
  59. Language                                 : English
  60. Default                                  : No
  61. Forced                                   : No
复制代码











回复

使用道具 举报

蓝光币
700
发表于 2023-1-25 16:15:45 | 显示全部楼层
特种兵,黑帮,犯罪,噱头已经十足,应该是一部打斗火爆的电影。有海报看着就是爽!
回复 支持 反对

使用道具 举报

蓝光币
2271
发表于 2023-1-25 22:18:34 | 显示全部楼层

我看不错噢 谢谢楼主!蓝光电影网越来越好!
回复 支持 反对

使用道具 举报

蓝光币
230
发表于 2023-1-25 23:24:44 | 显示全部楼层

既然你诚信诚意的推荐了,那我就勉为其难的看看吧!蓝光电影网不走平凡路。
回复 支持 反对

使用道具 举报

蓝光币
1308
发表于 6 天前 | 显示全部楼层
不错,收下了。
回复 支持 反对

使用道具 举报

蓝光币
230
发表于 6 天前 | 显示全部楼层

既然你诚信诚意的推荐了,那我就勉为其难的看看吧!蓝光电影网不走平凡路。
回复 支持 反对

使用道具 举报

蓝光币
341
发表于 6 天前 | 显示全部楼层

我看不错噢 谢谢楼主!蓝光电影网越来越好!
回复 支持 反对

使用道具 举报

蓝光币
147
发表于 5 天前 | 显示全部楼层

感谢楼主的无私分享!要想蓝光电影网好 就靠你我他
回复 支持 反对

使用道具 举报

蓝光币
230
发表于 5 天前 | 显示全部楼层

既然你诚信诚意的推荐了,那我就勉为其难的看看吧!蓝光电影网不走平凡路。
回复 支持 反对

使用道具 举报

蓝光币
813
发表于 5 天前 | 显示全部楼层

我看不错噢 谢谢楼主!蓝光电影网越来越好!
回复 支持 反对

使用道具 举报

懒得打字嘛,点击右侧快捷回复 【右侧内容,后台自定义】
您需要登录后才可以回帖 登录 | 立即加入

本版积分规则

Archiver|小黑屋| 蓝光电影网 |网站地图

Copyright © 2021 Comsenz Inc. Powered by 蓝光电影网

蓝光电影网

本站内容由用户自主分享和转载自互联网,转载目的在于传递更多信息,并不代表本网赞同其观点和对其真实性负责。

如有侵权、违反国家法律政策行为,请联系我们,我们会第一时间及时清除和处理!

举报反馈邮箱:[email protected]

快速回复 返回顶部 返回列表