找回密码

查看: 1663|回复: 0

[剧情] 安纳托利亚豹.Anatolian.Leopard.2021.TURKISH.1080p.HMAX.WEBRip.DD5.1.x264-playWEB 6.25GB

[复制链接]
蓝光币
2027
发表于 2023-3-22 06:09:54 | 显示全部楼层 |阅读模式


◎译  名 安纳托利亚豹 / Anatolian Leopard
◎片  名 Anadolu Leopari
◎年  代 2021
◎产  地 土耳其 / 德国 / 丹麦 / 波兰
◎类  别 剧情
◎语  言 土耳其语
◎上映日期 2021-09(多伦多电影节)
◎IMDb评星  ★★★★★★☆☆☆☆
◎IMDb评分  6.1/10 from 250 users
◎IMDb链接  https://www.imdb.com/title/tt11426664/
◎豆瓣评星 ★★★✦☆
◎豆瓣评分 6.9/10 from 303 users
◎豆瓣链接 https://movie.douban.com/subject/35348934/
◎片  长 108分钟
◎导  演 埃姆雷·卡伊斯 / Emre Kayiş
◎演  员 海蒂斯 / 阿斯兰 Hatice Aslan
      乌尔·波拉特 / Uğur Polat
      Muttalip Mujdeci Muttalip Mujdeci
      Ipek Türktan Ipek Türktan
◎编  剧 埃姆雷·卡伊斯 / Emre Kayiş
◎简  介 
  在土耳其最陈腐的动物园里,一位孤独的治理员和一位孤僻的女官员结成了一种不成思议的关系:他们一路隐瞒了动物园里最老的居民——一只安纳托利亚豹已经灭亡的消息。他们谎称豹子已经逃走,这一切都是为了阻止动物园私有化。荒诞失控的场面一发不成整理。在土耳其暮气沉沉的都城,这只豹子的灵魂盘桓不散。
◎获奖情况 
  第46届多伦多国际电影节 (2021)
  国际影评人同盟奖 国际影评人发现奖 埃姆雷·卡伊斯
  第12届北京国际电影节 (2022)
  天坛奖 最好影片奖(提名) 埃姆雷·卡伊斯
  1. Video
  2. ID : 1
  3. Format : AVC
  4. Format/Info : Advanced Video Codec
  5. Format profile : High@L4
  6. Format settings : CABAC / 4 Ref Frames
  7. Format settings, CABAC : Yes
  8. Format settings, Reference frames : 4 frames
  9. Codec ID : V_MPEG4/ISO/AVC
  10. Duration : 1 h 44 min
  11. Bit rate mode : Variable
  12. Bit rate : 8 250 kb/s
  13. Maximum bit rate : 12.4 Mb/s
  14. Width : 1 920 pixels
  15. Height : 1 080 pixels
  16. Display aspect ratio : 16:9
  17. Frame rate mode : Constant
  18. Frame rate : 25.000 FPS
  19. Color space : YUV
  20. Chroma subsampling : 4:2:0
  21. Bit depth : 8 bits
  22. Scan type : Progressive
  23. Bits/(Pixel*Frame) : 0.159
  24. Stream size : 5.97 GiB (96%)
  25. Writing library : x264 core 157 r2965 861cec4
  26. Encoding settings : cabac=1 / ref=4 / deblock=1:0:0 / analyse=0x3:0x113 / me=hex / subme=7 / psy=1 / psy_rd=1.00:0.00 / mixed_ref=1 / me_range=16 / chroma_me=1 / trellis=1 / 8x8dct=1 / cqm=0 / deadzone=21,11 / fast_pskip=1 / chroma_qp_offset=-2 / threads=34 / lookahead_threads=5 / sliced_threads=0 / nr=0 / decimate=1 / interlaced=0 / bluray_compat=0 / constrained_intra=0 / bframes=3 / b_pyramid=2 / b_adapt=1 / b_bias=0 / direct=1 / weightb=1 / open_gop=0 / weightp=2 / keyint=100 / keyint_min=100 / scenecut=40 / intra_refresh=0 / rc_lookahead=40 / rc=2pass / mbtree=1 / bitrate=8250 / ratetol=1.0 / qcomp=0.60 / qpmin=0 / qpmax=69 / qpstep=4 / cplxblur=20.0 / qblur=0.5 / vbv_maxrate=12375 / vbv_bufsize=6187 / nal_hrd=vbr / filler=0 / ip_ratio=1.40 / aq=1:1.00
  27. Language : Turkish (TR)
  28. Default : Yes
  29. Forced : No
  30. Color range : Limited
  31. Color primaries : BT.709
  32. Transfer characteristics : BT.709
  33. Matrix coefficients : BT.709
  34. Audio
  35. ID : 2
  36. Format : AC-3
  37. Format/Info : Audio Coding 3
  38. Commercial name : Dolby Digital
  39. Codec ID : A_AC3
  40. Duration : 1 h 44 min
  41. Bit rate mode : Constant
  42. Bit rate : 384 kb/s
  43. Channel(s) : 6 channels
  44. Channel layout : L R C LFE Ls Rs
  45. Sampling rate : 48.0 kHz
  46. Frame rate : 31.250 FPS (1536 SPF)
  47. Compression mode : Lossy
  48. Stream size : 286 MiB (4%)
  49. Language : Turkish
  50. Service kind : Complete Main
  51. Default : Yes
  52. Forced : No
  53. Text #1
  54. ID : 3
  55. Format : UTF-8
  56. Codec ID : S_TEXT/UTF8
  57. Codec ID/Info : UTF-8 Plain Text
  58. Duration : 1 h 39 min
  59. Bit rate : 75 b/s
  60. Frame rate : 0.129 FPS
  61. Count of elements : 770
  62. Stream size : 54.6 KiB (0%)
  63. Language : Bulgarian (BG)
  64. Default : No
  65. Forced : No
  66. Text #2
  67. ID : 4
  68. Format : UTF-8
  69. Codec ID : S_TEXT/UTF8
  70. Codec ID/Info : UTF-8 Plain Text
  71. Duration : 1 h 39 min
  72. Bit rate : 40 b/s
  73. Frame rate : 0.138 FPS
  74. Count of elements : 821
  75. Stream size : 29.7 KiB (0%)
  76. Title : Czechia
  77. Language : Czech (CZ)
  78. Default : No
  79. Forced : No
  80. Text #3
  81. ID : 5
  82. Format : UTF-8
  83. Codec ID : S_TEXT/UTF8
  84. Codec ID/Info : UTF-8 Plain Text
  85. Duration : 1 h 35 min
  86. Bit rate : 42 b/s
  87. Frame rate : 0.142 FPS
  88. Count of elements : 808
  89. Stream size : 29.9 KiB (0%)
  90. Language : English
  91. Default : No
  92. Forced : No
  93. Text #4
  94. ID : 6
  95. Format : UTF-8
  96. Codec ID : S_TEXT/UTF8
  97. Codec ID/Info : UTF-8 Plain Text
  98. Duration : 1 h 38 min
  99. Bit rate : 33 b/s
  100. Frame rate : 0.138 FPS
  101. Count of elements : 810
  102. Stream size : 24.1 KiB (0%)
  103. Language : Croatian (HR)
  104. Default : No
  105. Forced : No
  106. Text #5
  107. ID : 7
  108. Format : UTF-8
  109. Codec ID : S_TEXT/UTF8
  110. Codec ID/Info : UTF-8 Plain Text
  111. Duration : 1 h 38 min
  112. Bit rate : 42 b/s
  113. Frame rate : 0.137 FPS
  114. Count of elements : 808
  115. Stream size : 30.5 KiB (0%)
  116. Language : Hungarian (HU)
  117. Default : No
  118. Forced : No
  119. Text #6
  120. ID : 8
  121. Format : UTF-8
  122. Codec ID : S_TEXT/UTF8
  123. Codec ID/Info : UTF-8 Plain Text
  124. Duration : 1 h 38 min
  125. Bit rate : 62 b/s
  126. Frame rate : 0.138 FPS
  127. Count of elements : 810
  128. Stream size : 44.7 KiB (0%)
  129. Language : Macedonian (MK)
  130. Default : No
  131. Forced : No
  132. Text #7
  133. ID : 9
  134. Format : UTF-8
  135. Codec ID : S_TEXT/UTF8
  136. Codec ID/Info : UTF-8 Plain Text
  137. Duration : 1 h 38 min
  138. Bit rate : 37 b/s
  139. Frame rate : 0.136 FPS
  140. Count of elements : 809
  141. Stream size : 27.0 KiB (0%)
  142. Language : Polish (PL)
  143. Default : No
  144. Forced : No
  145. Text #8
  146. ID : 10
  147. Format : UTF-8
  148. Codec ID : S_TEXT/UTF8
  149. Codec ID/Info : UTF-8 Plain Text
  150. Duration : 1 h 35 min
  151. Bit rate : 41 b/s
  152. Frame rate : 0.140 FPS
  153. Count of elements : 802
  154. Stream size : 29.3 KiB (0%)
  155. Language : Romanian (RO)
  156. Default : No
  157. Forced : No
  158. Text #9
  159. ID : 11
  160. Format : UTF-8
  161. Codec ID : S_TEXT/UTF8
  162. Codec ID/Info : UTF-8 Plain Text
  163. Duration : 1 h 38 min
  164. Bit rate : 35 b/s
  165. Frame rate : 0.138 FPS
  166. Count of elements : 810
  167. Stream size : 25.4 KiB (0%)
  168. Title : Slovenia
  169. Language : Slovenian (SI)
  170. Default : No
  171. Forced : No
  172. Text #10
  173. ID : 12
  174. Format : UTF-8
  175. Codec ID : S_TEXT/UTF8
  176. Codec ID/Info : UTF-8 Plain Text
  177. Duration : 1 h 38 min
  178. Bit rate : 34 b/s
  179. Frame rate : 0.138 FPS
  180. Count of elements : 810
  181. Stream size : 24.7 KiB (0%)
  182. Title : Latin, Serbia
  183. Language : Serbian-Latn-RS
  184. Default : No
  185. Forced : No
复制代码











回复

使用道具 举报

懒得打字嘛,点击右侧快捷回复 【右侧内容,后台自定义】
您需要登录后才可以回帖 登录 | 立即加入

本版积分规则

Archiver| |网站地图

Copyright © 2024 Comsenz Inc. Powered by 蓝光电影网

本站内容由用户自主分享和转载自互联网,转载目的在于传递更多信息,并不代表本网赞同其观点和对其真实性负责。

如有侵权、违反国家法律政策行为,请联系我们,我们会第一时间及时清除和处理!

举报反馈邮箱:4k1080.com@gmail.com

快速回复 返回顶部 返回列表