找回密码

蓝光电影网

查看: 804|回复: 1

[剧情] 出租男孩/瑞士孤儿 The.Foster.Boy.2011.720p.BluRay.x264-BiPOLAR 4.37GB

[复制链接]
蓝光币
623
发表于 2018-4-18 19:10:01 | 显示全部楼层 |阅读模式
031109wiqjssmj4l5smljp.jpg
◎译  名 出租男孩/瑞士孤儿
◎片  名 Der Verdingbub
◎年  代 2011
◎产  地 瑞士/德国
◎类  别 剧情/历史
◎语  言 瑞士德语
◎上映日期 2011-11-03(瑞士)
◎IMDb评分  7.4/10 from 1,023 users
◎IMDb链接  http://www.imdb.com/title/tt2057931/
◎豆瓣评分 7.9/10 from 836 users
◎豆瓣链接 https://movie.douban.com/subject/10439904/
◎片  长 103分钟
◎导  演 Markus Imboden
◎主  演 Katja Riemann
      彼得·西蒙尼舍克 Stefan Kurt
      Peter Simonischek

◎简  介

  19-20世纪初,瑞士共有约15万儿童成为这样的出租孩子,仅1930年就有6万名孩子在农民家打苦工。这也是社会结构带来的结果,那时辰瑞士以农业为主,而农民缺少劳动力,年幼的贫民家孩子便成为农民的免费劳动力。现在在瑞士另有1万名曩昔的出租孩子活在人世。
  
  百余年来,瑞士从未面临过这个历史上的“污点”,现在这部电影引发了社会的关注,瑞士政府也做出了响应的反应,联邦司法部长西蒙奈特·索马鲁嘎(Simonetta Sommaruga)看了这部电影并暗示,很兴奋这个题目现在引发了社会的重视。
  
  她说,联邦将于2012年为昔时的出租孩子举行一个纪念活动,这一活动的目标在于精神抵偿,而不是经济抵偿。
  
  这些出租孩子曾为瑞士的农业经济作出了庞大的进献,但是他们却没有获得过一分钱。瑞士政府也从未给过他们任何抵偿,甚至不敢计较这笔用度,由于数字将会很是惊人。
  
  《周日一瞥》报与一家大银行的经济专家配合算过一笔帐,瑞士农业经济从这些孩子身上享用的无偿劳动换算成金钱,代价高达200-650亿瑞郎。


  1. Video
  2. ID                                       : 1
  3. Format                                   : AVC
  4. Format/Info                              : Advanced Video Codec
  5. Format profile                           : [email protected]
  6. Format settings                          : CABAC / 5 Ref Frames
  7. Format settings, CABAC                   : Yes
  8. Format settings, RefFrames               : 5 frames
  9. Codec ID                                 : V_MPEG4/ISO/AVC
  10. Duration                                 : 1 h 47 min
  11. Bit rate                                 : 5 059 kb/s
  12. Width                                    : 1 280 pixels
  13. Height                                   : 544 pixels
  14. Display aspect ratio                     : 2.35:1
  15. Frame rate mode                          : Constant
  16. Frame rate                               : 23.976 (24000/1001) FPS
  17. Color space                              : YUV
  18. Chroma subsampling                       : 4:2:0
  19. Bit depth                                : 8 bits
  20. Scan type                                : Progressive
  21. Bits/(Pixel*Frame)                       : 0.303
  22. Stream size                              : 3.79GB (87%)
  23. Writing library                          : x264 core 155 r2901 7d0ff22
  24. Encoding settings                        : cabac=1 / ref=5 / deblock=1:-3:-3 / analyse=0x3:0x133 / me=umh / subme=9 / psy=1 / psy_rd=1.00:0.00 / mixed_ref=1 / me_range=16 / chroma_me=1 / trellis=2 / 8x8dct=1 / cqm=0 / deadzone=21,11 / fast_pskip=0 / chroma_qp_offset=-2 / threads=17 / lookahead_threads=1 / sliced_threads=0 / nr=0 / decimate=1 / interlaced=0 / bluray_compat=0 / constrained_intra=0 / bframes=3 / b_pyramid=2 / b_adapt=1 / b_bias=0 / direct=3 / weightb=1 / open_gop=0 / weightp=2 / keyint=240 / keyint_min=24 / scenecut=40 / intra_refresh=0 / rc_lookahead=50 / rc=2pass / mbtree=1 / bitrate=5059 / ratetol=1.0 / qcomp=0.60 / qpmin=0 / qpmax=69 / qpstep=4 / cplxblur=20.0 / qblur=0.5 / ip_ratio=1.40 / aq=1:1.00
  25. Language                                 : English
  26. Default                                  : Yes
  27. Forced                                   : No

  28. Audio
  29. ID                                       : 2
  30. Format                                   : DTS
  31. Format/Info                              : Digital Theater Systems
  32. Mode                                     : 16
  33. Format settings, Endianness              : Big
  34. Codec ID                                 : A_DTS
  35. Duration                                 : 1 h 47 min
  36. Bit rate mode                            : Constant
  37. Bit rate                                 : 768 kb/s
  38. Channel(s)                               : 6 channels
  39. Channel positions                        : Front: L C R, Side: L R, LFE
  40. Sampling rate                            : 48.0 kHz
  41. Frame rate                               : 93.750 FPS (512 SPF)
  42. Bit depth                                : 24 bits
  43. Compression mode                         : Lossy
  44. Stream size                              : 590 MiB (13%)
  45. Language                                 : German
  46. Default                                  : Yes
  47. Forced                                   : No

  48. Text
  49. ID                                       : 3
  50. Format                                   : UTF-8
  51. Codec ID                                 : S_TEXT/UTF8
  52. Codec ID/Info                            : UTF-8 Plain Text
  53. Duration                                 : 1 h 45 min
  54. Bit rate                                 : 34 b/s
  55. Count of elements                        : 1000
  56. Stream size                              : 26.3 KiB (0%)
  57. Title                                    : English
  58. Language                                 : English
  59. Default                                  : Yes
  60. Forced                                   : Yes

  61. Menu
  62. 00:00:00.000                             : en:00:00:00.000
  63. 00:06:36.229                             : en:00:06:36.229
  64. 00:15:27.260                             : en:00:15:27.260
  65. 00:24:40.062                             : en:00:24:40.062
  66. 00:33:52.530                             : en:00:33:52.530
  67. 00:39:19.190                             : en:00:39:19.190
  68. 00:46:48.347                             : en:00:46:48.347
  69. 00:55:48.554                             : en:00:55:48.554
  70. 01:07:26.417                             : en:01:07:26.417
  71. 01:14:12.865                             : en:01:14:12.865
  72. 01:23:08.775                             : en:01:23:08.775
  73. 01:35:39.150                             : en:01:35:39.150




复制代码
复制代码
031110u1unqk7puzmw18ou.jpg






回复

使用道具 举报

蓝光币
916
发表于 2018-4-19 11:40:48 | 显示全部楼层
多谢楼主分享
回复 支持 反对

使用道具 举报

懒得打字嘛,点击右侧快捷回复 【右侧内容,后台自定义】
您需要登录后才可以回帖 登录 | 立即加入

本版积分规则

Archiver|小黑屋| 蓝光电影网 |网站地图

Copyright © 2021 Comsenz Inc. Powered by 蓝光电影网

蓝光电影网

本站内容由用户自主分享和转载自互联网,转载目的在于传递更多信息,并不代表本网赞同其观点和对其真实性负责。

如有侵权、违反国家法律政策行为,请联系我们,我们会第一时间及时清除和处理!

举报反馈邮箱:[email protected]

快速回复 返回顶部 返回列表