找回密码

蓝光电影网

查看: 459|回复: 2

[喜剧] 金牌女警1/金发女警1 Vice.Academy.1989.1080p.BluRay.REMUX.AVC.DTS-HD.MA.2.0-FGT 23.31GB

[复制链接]
蓝光币
382
发表于 2020-1-19 17:24:52 | 显示全部楼层 |阅读模式
金牌女警1/金发女警1 Vice.Academy.1989.1080p.BluRay.REMUX.AVC.DTS-HD.MA.2.0-FGT 23.31GB-1.png

译  名 金牌女警1 / 金发女警1 / 金牌女警
片  名 Vice Academy
年  代 1989
产  地 美国
类  别 笑剧 / 犯罪
语  言 英语
上映日期 1989-06-08(美国)
IMDb评分  4.3/10 from 439 users
IMDb链接  https://www.imdb.com/title/tt0096379
豆瓣评分 0/10 from 0 users
豆瓣链接 https://movie.douban.com/subject/3144727/
导  演 Rick Sloane
编  剧 Rick Sloane
主  演 Linnea Quigley
       Ginger Lynn Allen
       Karen Russell


标  签 美国 | 典范老片 | 情色笑剧 | 情色 | 之前看过 | 带枪女郎 | 1989 | 犯罪

简  介  

  暂无相关剧情先容
  1. Video
  2. ID                                       : 1
  3. Format                                   : AVC
  4. Format/Info                              : Advanced Video Codec
  5. Format profile                           : [email protected]
  6. Format settings                          : CABAC / 3 Ref Frames
  7. Format settings, CABAC                   : Yes
  8. Format settings, Reference frames        : 3 frames
  9. Codec ID                                 : V_MPEG4/ISO/AVC
  10. Duration                                 : 1 h 29 min
  11. Bit rate mode                            : Variable
  12. Bit rate                                 : 35.0 Mb/s
  13. Maximum bit rate                         : 40.0 Mb/s
  14. Width                                    : 1 920 pixels
  15. Height                                   : 1 080 pixels
  16. Display aspect ratio                     : 16:9
  17. Frame rate mode                          : Constant
  18. Frame rate                               : 23.976 (24000/1001) FPS
  19. Standard                                 : NTSC
  20. Color space                              : YUV
  21. Chroma subsampling                       : 4:2:0
  22. Bit depth                                : 8 bits
  23. Scan type                                : Progressive
  24. Bits/(Pixel*Frame)                       : 0.704
  25. Stream size                              : 21.9 GiB (94%)
  26. Title                                    : Vice.Academy.1989.1080p.BluRay.REMUX.AVC.DTS-HD.MA.2.0-FGT
  27. Writing library                          : x264pro - Adobe CS Exporter Plug-in
  28. Encoding settings                        : cabac=1 / ref=4 / deblock=1:-1:-1 / analyse=0x3:0x133 / me=umh / subme=10 / psy=1 / psy_rd=1.00:0.15 / mixed_ref=1 / me_range=24 / chroma_me=1 / trellis=2 / 8x8dct=1 / cqm=0 / deadzone=21,11 / fast_pskip=1 / chroma_qp_offset=-3 / threads=12 / lookahead_threads=2 / sliced_threads=0 / slices=4 / nr=0 / decimate=1 / interlaced=0 / bluray_compat=1 / constrained_intra=0 / bframes=3 / b_pyramid=1 / b_adapt=2 / b_bias=0 / direct=3 / weightb=1 / open_gop=0 / weightp=1 / keyint=24 / keyint_min=1 / scenecut=40 / intra_refresh=0 / rc_lookahead=24 / rc=2pass / mbtree=1 / bitrate=35000 / ratetol=1.0 / qcomp=0.60 / qpmin=0 / qpmax=69 / qpstep=4 / cplxblur=20.0 / qblur=0.5 / vbv_maxrate=40000 / vbv_bufsize=30000 / nal_hrd=vbr / ip_ratio=1.40 / aq=1:1.00
  29. Language                                 : English
  30. Default                                  : No
  31. Forced                                   : No
  32. Color range                              : Limited
  33. Color primaries                          : BT.709
  34. Transfer characteristics                 : BT.709
  35. Matrix coefficients                      : BT.709

  36. Audio #1
  37. ID                                       : 2
  38. Format                                   : DTS XLL
  39. Format/Info                              : Digital Theater Systems
  40. Commercial name                          : DTS-HD Master Audio
  41. Codec ID                                 : A_DTS
  42. Duration                                 : 1 h 29 min
  43. Bit rate mode                            : Variable
  44. Bit rate                                 : 2 048 kb/s
  45. Channel(s)                               : 2 channels
  46. Channel layout                           : L R
  47. Sampling rate                            : 48.0 kHz
  48. Frame rate                               : 93.750 FPS (512 SPF)
  49. Bit depth                                : 24 bits
  50. Compression mode                         : Lossless
  51. Stream size                              : 1.28 GiB (6%)
  52. Title                                    : Vice.Academy.1989.1080p.BluRay.REMUX.AVC.DTS-HD.MA.2.0-FGT
  53. Language                                 : English
  54. Default                                  : Yes
  55. Forced                                   : No

  56. Audio #2
  57. ID                                       : 3
  58. Format                                   : AC-3
  59. Format/Info                              : Audio Coding 3
  60. Commercial name                          : Dolby Digital
  61. Codec ID                                 : A_AC3
  62. Duration                                 : 1 h 29 min
  63. Bit rate mode                            : Constant
  64. Bit rate                                 : 192 kb/s
  65. Channel(s)                               : 2 channels
  66. Channel layout                           : L R
  67. Sampling rate                            : 48.0 kHz
  68. Frame rate                               : 31.250 FPS (1536 SPF)
  69. Bit depth                                : 16 bits
  70. Compression mode                         : Lossy
  71. Stream size                              : 123 MiB (1%)
  72. Title                                    : Vice.Academy.1989.1080p.BluRay.REMUX.AVC.DTS-HD.MA.2.0-FGT
  73. Language                                 : English
  74. Service kind                             : Complete Main
  75. Default                                  : No
  76. Forced                                   : No

  77. Text
  78. ID                                       : 4
  79. Format                                   : PGS
  80. Muxing mode                              : zlib
  81. Codec ID                                 : S_HDMV/PGS
  82. Codec ID/Info                            : Picture based subtitle format used on BDs/HD-DVDs
  83. Duration                                 : 1 h 29 min
  84. Bit rate                                 : 28.0 kb/s
  85. Count of elements                        : 2879
  86. Stream size                              : 17.9 MiB (0%)
  87. Title                                    : English-PGS
  88. Language                                 : English
  89. Default                                  : Yes
  90. Forced                                   : No

  91. Menu
  92. 00:00:00.000                             : en:Chapter 01
  93. 00:21:24.533                             : en:Chapter 02
  94. 00:41:59.808                             : en:Chapter 03
  95. 01:02:31.247                             : en:Chapter 04
  96. 01:20:12.808                             : en:Chapter 05
复制代码

172156h1in474bs1bd71zp.png 金牌女警1/金发女警1 Vice.Academy.1989.1080p.BluRay.REMUX.AVC.DTS-HD.MA.2.0-FGT 23.31GB-3.png 金牌女警1/金发女警1 Vice.Academy.1989.1080p.BluRay.REMUX.AVC.DTS-HD.MA.2.0-FGT 23.31GB-4.png






回复

使用道具 举报

懒得打字嘛,点击右侧快捷回复 【右侧内容,后台自定义】
您需要登录后才可以回帖 登录 | 立即加入

本版积分规则

Archiver|小黑屋| 蓝光电影网 |网站地图

Copyright © 2021 Comsenz Inc. Powered by 蓝光电影网

蓝光电影网

本站内容由用户自主分享和转载自互联网,转载目的在于传递更多信息,并不代表本网赞同其观点和对其真实性负责。

如有侵权、违反国家法律政策行为,请联系我们,我们会第一时间及时清除和处理!

举报反馈邮箱:[email protected]

快速回复 返回顶部 返回列表