找回密码

蓝光电影网

查看: 163|回复: 0

[纪录] 人工智能竞赛 The.A.I.Race.2017.1080p.AMZN.WEBRip.DDP2.0.x264-TEPES 3.26GB

[复制链接]
蓝光币
426
发表于 2020-1-20 00:14:38 | 显示全部楼层 |阅读模式
MV5BODZlYWE3MTQtYmNkZC00MDJhLWI5MmUtMTlmNDk1YTFkNjcxXkEyXkFqcGdeQXVyMjE4MzQ2OTQ@.jpg

译  名 野生智能比赛
片  名 The A.I. Race
年  代 2017
产  地 澳大利亚
类  别 记载片
语  言 英语
上映日期 2017-08-08(澳大利亚)
IMDb评分  7.4/10 from 24 users
IMDb链接  https://www.imdb.com/title/tt7252918
豆瓣评分 0/10 from 0 users
豆瓣链接 https://movie.douban.com/subject/30325811/

标  签 记载片 | 澳大利亚 | AI | 科技 | 创维盒子 | [记载片]-美国ABC | B站 | ABC

简  介  

  The Discussion of Artificially Intelligence replacing Humans. And the Technological Increases of Artificial Intelligence (Moore's Law) Capabilities, Artificial Intelligence that learns.
  关于野生智力取代人类的会商。野生智能(摩尔定律)的技术进步才能,野生智能的进修才能。
  1. Video
  2. ID                                       : 1
  3. Format                                   : AVC
  4. Format/Info                              : Advanced Video Codec
  5. Format profile                           : [email protected]
  6. Format settings                          : CABAC / 4 Ref Frames
  7. Format settings, CABAC                   : Yes
  8. Format settings, Reference frames        : 4 frames
  9. Codec ID                                 : V_MPEG4/ISO/AVC
  10. Duration                                 : 54 min 53 s
  11. Bit rate mode                            : Constant
  12. Bit rate                                 : 8 278 kb/s
  13. Nominal bit rate                         : 10 000 kb/s
  14. Width                                    : 1 920 pixels
  15. Height                                   : 1 080 pixels
  16. Display aspect ratio                     : 16:9
  17. Frame rate mode                          : Constant
  18. Frame rate                               : 25.000 FPS
  19. Color space                              : YUV
  20. Chroma subsampling                       : 4:2:0
  21. Bit depth                                : 8 bits
  22. Scan type                                : Progressive
  23. Bits/(Pixel*Frame)                       : 0.160
  24. Stream size                              : 3.17 GiB (97%)
  25. Default                                  : Yes
  26. Forced                                   : No
  27. Color range                              : Limited
  28. Color primaries                          : BT.709
  29. Transfer characteristics                 : BT.709
  30. Matrix coefficients                      : BT.709

  31. Audio
  32. ID                                       : 2
  33. Format                                   : E-AC-3
  34. Format/Info                              : Enhanced AC-3
  35. Commercial name                          : Dolby Digital Plus
  36. Codec ID                                 : A_EAC3
  37. Duration                                 : 54 min 53 s
  38. Bit rate mode                            : Constant
  39. Bit rate                                 : 224 kb/s
  40. Channel(s)                               : 2 channels
  41. Channel layout                           : L R
  42. Sampling rate                            : 48.0 kHz
  43. Frame rate                               : 31.250 FPS (1536 SPF)
  44. Compression mode                         : Lossy
  45. Stream size                              : 88.0 MiB (3%)
  46. Language                                 : English
  47. Service kind                             : Complete Main
  48. Default                                  : Yes
  49. Forced                                   : No

  50. Text
  51. ID                                       : 3
  52. Format                                   : UTF-8
  53. Codec ID                                 : S_TEXT/UTF8
  54. Codec ID/Info                            : UTF-8 Plain Text
  55. Duration                                 : 54 min 22 s
  56. Bit rate                                 : 108 b/s
  57. Count of elements                        : 1021
  58. Stream size                              : 43.2 KiB (0%)
  59. Title                                    : SDH
  60. Language                                 : English
  61. Default                                  : No
  62. Forced                                   : No
复制代码

野生智能比赛 The.A.I.Race.2017.1080p.AMZN.WEBRip.DDP2.0.x264-TEPES 3.26GB-1.png 001212flp81u8ib1phebhh.png 野生智能比赛 The.A.I.Race.2017.1080p.AMZN.WEBRip.DDP2.0.x264-TEPES 3.26GB-3.png






回复

使用道具 举报

懒得打字嘛,点击右侧快捷回复 【右侧内容,后台自定义】
您需要登录后才可以回帖 登录 | 立即加入

本版积分规则

Archiver|小黑屋| 蓝光电影网 |网站地图

Copyright © 2021 Comsenz Inc. Powered by 蓝光电影网

蓝光电影网

本站内容由用户自主分享和转载自互联网,转载目的在于传递更多信息,并不代表本网赞同其观点和对其真实性负责。

如有侵权、违反国家法律政策行为,请联系我们,我们会第一时间及时清除和处理!

举报反馈邮箱:[email protected]

快速回复 返回顶部 返回列表