找回密码

蓝光电影网

查看: 159|回复: 0

[纪录] 战争的威胁 Imminent.Threat.2015.1080p.AMZN.WEBRip.DDP2.0.x264-TEPES 4.66GB

[复制链接]
蓝光币
382
发表于 2020-1-20 00:35:24 | 显示全部楼层 |阅读模式
战争的威胁 Imminent.Threat.2015.1080p.AMZN.WEBRip.DDP2.0.x264-TEPES 4.66GB-1.png

译  名 战争的威胁 / The War Within
片  名 Imminent Threat
年  代 2015
产  地 美国
类  别 记载片 / 战争
语  言 英语
上映日期 2015-09-04(美国)
IMDb评分  6.2/10 from 111 users
IMDb链接  https://www.imdb.com/title/tt2731436
豆瓣评分 0/10 from 0 users
豆瓣链接 https://movie.douban.com/subject/26390232/
片  长 73分钟
导  演 Janek Ambros
编  剧 Janek Ambros
主  演 巴拉克·奥巴马 Barack Obama
       爱德华·斯诺登 Edward Snowden
       希拉里·罗德姆·克林顿 Hillary Rodham Clinton
       马丁·路德·金 Martin Luther King
       乔治·W· 布什 George W. Bush
       达尔顿·特朗勃 Dalton Trumbo
       朱利安·阿桑奇 Julian Assange
       乔·拜登 Joe Biden
       Dwight D. Eisenhower
       萨达姆·本·侯赛因·本·马吉德·阿尔·提克里特 Saddam Hussein
       Jeremy Scahill
       约瑟夫·斯大林 Joseph Stalin
       Joseph McCarthy
       Dick Cheney
       George McGovern
       Barry Goldwater
       Nancy Pelosi
       John Boehner
       Chris Hayes
       罗恩·怀登 Ron Wyden
       Tommy Campbell
       Eric Cantor


标  签 记载片 | 美国 | 战争

简  介  

  A look at the War on Terror and the threat it's causing to our civil liberties and political discourse.
  1. Video
  2. ID                                       : 1
  3. Format                                   : AVC
  4. Format/Info                              : Advanced Video Codec
  5. Format profile                           : [email protected]
  6. Format settings                          : CABAC / 4 Ref Frames
  7. Format settings, CABAC                   : Yes
  8. Format settings, Reference frames        : 4 frames
  9. Format settings, GOP                     : M=4, N=50
  10. Codec ID                                 : V_MPEG4/ISO/AVC
  11. Duration                                 : 1 h 11 min
  12. Bit rate mode                            : Constant
  13. Bit rate                                 : 9 147 kb/s
  14. Nominal bit rate                         : 10 000 kb/s
  15. Width                                    : 1 920 pixels
  16. Height                                   : 1 080 pixels
  17. Display aspect ratio                     : 16:9
  18. Frame rate mode                          : Constant
  19. Frame rate                               : 25.000 FPS
  20. Standard                                 : PAL
  21. Color space                              : YUV
  22. Chroma subsampling                       : 4:2:0
  23. Bit depth                                : 8 bits
  24. Scan type                                : Progressive
  25. Bits/(Pixel*Frame)                       : 0.176
  26. Stream size                              : 4.55 GiB (98%)
  27. Language                                 : English
  28. Default                                  : Yes
  29. Forced                                   : No
  30. Color range                              : Limited
  31. Color primaries                          : BT.709
  32. Transfer characteristics                 : BT.709
  33. Matrix coefficients                      : BT.709

  34. Audio
  35. ID                                       : 2
  36. Format                                   : E-AC-3
  37. Format/Info                              : Enhanced AC-3
  38. Commercial name                          : Dolby Digital Plus
  39. Codec ID                                 : A_EAC3
  40. Duration                                 : 1 h 11 min
  41. Bit rate mode                            : Constant
  42. Bit rate                                 : 224 kb/s
  43. Channel(s)                               : 2 channels
  44. Channel layout                           : L R
  45. Sampling rate                            : 48.0 kHz
  46. Frame rate                               : 31.250 FPS (1536 SPF)
  47. Compression mode                         : Lossy
  48. Stream size                              : 114 MiB (2%)
  49. Language                                 : English
  50. Service kind                             : Complete Main
  51. Default                                  : Yes
  52. Forced                                   : No

  53. Text
  54. ID                                       : 3
  55. Format                                   : UTF-8
  56. Codec ID                                 : S_TEXT/UTF8
  57. Codec ID/Info                            : UTF-8 Plain Text
  58. Duration                                 : 1 h 10 min
  59. Bit rate                                 : 106 b/s
  60. Count of elements                        : 1353
  61. Stream size                              : 55.1 KiB (0%)
  62. Title                                    : SDH
  63. Language                                 : English
  64. Default                                  : No
  65. Forced                                   : No
复制代码

战争的威胁 Imminent.Threat.2015.1080p.AMZN.WEBRip.DDP2.0.x264-TEPES 4.66GB-2.png 战争的威胁 Imminent.Threat.2015.1080p.AMZN.WEBRip.DDP2.0.x264-TEPES 4.66GB-3.png 战争的威胁 Imminent.Threat.2015.1080p.AMZN.WEBRip.DDP2.0.x264-TEPES 4.66GB-4.png






回复

使用道具 举报

懒得打字嘛,点击右侧快捷回复 【右侧内容,后台自定义】
您需要登录后才可以回帖 登录 | 立即加入

本版积分规则

Archiver|小黑屋| 蓝光电影网 |网站地图

Copyright © 2021 Comsenz Inc. Powered by 蓝光电影网

蓝光电影网

本站内容由用户自主分享和转载自互联网,转载目的在于传递更多信息,并不代表本网赞同其观点和对其真实性负责。

如有侵权、违反国家法律政策行为,请联系我们,我们会第一时间及时清除和处理!

举报反馈邮箱:[email protected]

快速回复 返回顶部 返回列表