找回密码

蓝光电影网

查看: 343|回复: 2

[剧情] 最后一搏/终极衡量 The.Last.Full.Measure.2019.1080p.WEB-DL.DD5.1.H264-FGT 3.94GB

[复制链接]
蓝光币
382
发表于 2020-1-20 14:43:18 | 显示全部楼层 |阅读模式
最初一搏/终极权衡 The.Last.Full.Measure.2019.1080p.WEB-DL.DD5.1.H264-FGT 3.94GB-1.png

译  名 最初一搏 / 终极权衡
片  名 The Last Full Measure
年  代 2020
产  地 美国
类  别 剧情 / 战争
语  言 英语
上映日期 2020-01-24(美国)
IMDb评分  7.9/10 from 85 users
IMDb链接  https://www.imdb.com/title/tt0783640
豆瓣评分 0/10 from 0 users
豆瓣链接 https://movie.douban.com/subject/1905779/
片  长 110分钟
导  演 托德·罗宾森 Todd Robinson
编  剧 托德·罗宾森 Todd Robinson
主  演 塞缪尔·杰克逊 Samuel L. Jackson
       塞巴斯蒂安·斯坦 Sebastian Stan
       克里斯托弗·普卢默 Christopher Plummer
       布莱德利·惠特福德 Bradley Whitford
       彼得·方达 Peter Fonda
       艾德·哈里斯 Ed Harris
       艾莉森·萨多尔 Alison Sudol
       杰瑞米·艾文 Jeremy Irvine
       威廉·赫特 William Hurt
       戴安·拉德 Diane Ladd
       迈克尔·因佩里奥利 Michael Imperioli
       莱纳斯·罗彻 Linus Roache
       埃米·马迪根 Amy Madigan
       约翰·萨维奇 John Savage
       罗伯特·派恩 Robert Pine
       扎齐·罗伊瑞格 Zach Roerig
       麦克斯·盖尔 Max Gail
       丽莎·盖伊·汉密尔顿 Lisa Gay Hamilton
       代尔·戴 Dale Dye
       瑟达吕斯·布兰 Ser'Darius Blain
       柯迪·沃克 Cody Walker
       特拉维斯·阿隆·韦德 Travis Aaron Wade
       詹姆斯·贾格尔 James Jagger
       维布尔·弗利茨杰拉德 Wilbur Fitzgerald
       理查德·考索恩 Richard Cawthorne
       里克·赖茨 Ric Reitz
       阿瑟·迈尔斯·法里卡 Asher Miles Fallica
       朱利安·亚当斯 Julian Adams
       丹·雷诺兹 Dan Renalds
       贾迈尔·钱伯斯 Jamel Chambers
       罗宾·戴克 Robin Dyke
       胡安·贾斯帕 Juan Gaspard
       佩里·约翰逊 Perry Johnson
       奥罗拉·卡琳 Aurora Karine
       瑞恩·牛顿 Ryan Newton
       帕蒂·舍尔哈斯 Patti Schellhaas
       特拉维斯·汤普森 Travis Thompson
       罗伯特·廷斯利 Robert Tinsley
       Martin Copping
       Tyler Robinson


标  签 战争 | SebastianStan | 美国 | 美国电影 | 历史 | 南北战争 | 剧情 | 史诗

简  介  

  故事的仆人公是一个很有野心的政府权要。某天他接管了一件辣手的使命:完成一份关于授与一个豪杰以国家最高声誉的报告。题目是,这个豪杰的业绩是发生在四十年前,而且并不像凡是的那样毫无瑕疵。在观察这起事务中,仆人公的生活发生了难以预感的改变,同时也殃及了四周的人们
  1. Video
  2. ID                                       : 1
  3. Format                                   : AVC
  4. Format/Info                              : Advanced Video Codec
  5. Format profile                           : [email protected]
  6. Format settings                          : CABAC / 5 Ref Frames
  7. Format settings, CABAC                   : Yes
  8. Format settings, Reference frames        : 5 frames
  9. Codec ID                                 : V_MPEG4/ISO/AVC
  10. Duration                                 : 1 h 55 min
  11. Bit rate                                 : 4 509 kb/s
  12. Width                                    : 1 920 pixels
  13. Height                                   : 800 pixels
  14. Display aspect ratio                     : 2.40:1
  15. Frame rate mode                          : Constant
  16. Frame rate                               : 24.000 FPS
  17. Color space                              : YUV
  18. Chroma subsampling                       : 4:2:0
  19. Bit depth                                : 8 bits
  20. Scan type                                : Progressive
  21. Bits/(Pixel*Frame)                       : 0.122
  22. Stream size                              : 3.63 GiB (92%)
  23. Title                                    : The.Last.Full.Measure.2019.1080p.WEB-DL.DD5.1.H264-FGT
  24. Language                                 : English
  25. Default                                  : Yes
  26. Forced                                   : No
  27. Color range                              : Limited
  28. Color primaries                          : BT.709
  29. Transfer characteristics                 : BT.709
  30. Matrix coefficients                      : BT.709

  31. Audio
  32. ID                                       : 2
  33. Format                                   : AC-3
  34. Format/Info                              : Audio Coding 3
  35. Commercial name                          : Dolby Digital
  36. Codec ID                                 : A_AC3
  37. Duration                                 : 1 h 55 min
  38. Bit rate mode                            : Constant
  39. Bit rate                                 : 384 kb/s
  40. Channel(s)                               : 6 channels
  41. Channel layout                           : L R C LFE Ls Rs
  42. Sampling rate                            : 48.0 kHz
  43. Frame rate                               : 31.250 FPS (1536 SPF)
  44. Bit depth                                : 16 bits
  45. Compression mode                         : Lossy
  46. Stream size                              : 316 MiB (8%)
  47. Title                                    : The.Last.Full.Measure.2019.1080p.WEB-DL.DD5.1.H264-FGT
  48. Language                                 : English
  49. Service kind                             : Complete Main
  50. Default                                  : Yes
  51. Forced                                   : No

  52. Menu
  53. 00:00:00.000                             : en:1
  54. 00:09:00.333                             : en:2
  55. 00:17:52.083                             : en:3
  56. 00:26:37.083                             : en:4
  57. 00:37:09.208                             : en:5
  58. 00:44:39.833                             : en:6
  59. 00:53:17.458                             : en:7
  60. 01:02:03.958                             : en:8
  61. 01:11:10.291                             : en:9
  62. 01:19:53.541                             : en:10
  63. 01:30:16.373                             : en:11
  64. 01:37:51.414                             : en:12
复制代码

最初一搏/终极权衡 The.Last.Full.Measure.2019.1080p.WEB-DL.DD5.1.H264-FGT 3.94GB-2.png 最初一搏/终极权衡 The.Last.Full.Measure.2019.1080p.WEB-DL.DD5.1.H264-FGT 3.94GB-3.png 最初一搏/终极权衡 The.Last.Full.Measure.2019.1080p.WEB-DL.DD5.1.H264-FGT 3.94GB-4.png






回复

使用道具 举报

懒得打字嘛,点击右侧快捷回复 【右侧内容,后台自定义】
您需要登录后才可以回帖 登录 | 立即加入

本版积分规则

Archiver|小黑屋| 蓝光电影网 |网站地图

Copyright © 2021 Comsenz Inc. Powered by 蓝光电影网

蓝光电影网

本站内容由用户自主分享和转载自互联网,转载目的在于传递更多信息,并不代表本网赞同其观点和对其真实性负责。

如有侵权、违反国家法律政策行为,请联系我们,我们会第一时间及时清除和处理!

举报反馈邮箱:[email protected]

快速回复 返回顶部 返回列表