找回密码

蓝光电影网

查看: 128|回复: 0

[剧情] 诱饵/饵 Bait.2019.1080p.WEB-DL.DD2.0.H264-FGT 3.23GB

[复制链接]
蓝光币
386
发表于 2020-1-20 14:45:12 | 显示全部楼层 |阅读模式
p2575457490.jpg

译  名 诱饵 / 饵(台)
片  名 Bait
年  代 2019
产  地 英国
类  别 剧情
语  言 英语
上映日期 2019-02-09(柏林电影节)
IMDb评分  7.7/10 from 943 users
IMDb链接  https://www.imdb.com/title/tt9652782
豆瓣评分 0/10 from 0 users
豆瓣链接 https://movie.douban.com/subject/30453075/
片  长 88分钟
导  演 马克·詹金 Mark Jenkin
编  剧 马克·詹金 Mark Jenkin
主  演 Morgan Val Baker
       Georgia Ellery
       Martin Ellis
       Chloe Endean
       Stacey Guthrie
       Jowan Jacobs
       Giles King
       Edward Rowe
       西蒙·谢泼德 Simon Shepherd
       特里斯坦·斯特罗克 Tristan Sturrock
       Mary Woodvine


标  签 英国 | 2019 | 电影 | 剧情 | Mark_Jenkin | 黑白 | 柏林电影节 | 2010s

简  介  

  康沃尔渔村的风光亮信片故乡诗误导了人们。虽然曩昔钓鱼是一种养家生活的方式,但现在富有的伦敦旅客纷纷下山,取代了当地人,当地人的生存是以遭到威胁。史蒂文和马丁兄弟的关系也很严重。马丁是一个没有船的渔夫,由于史蒂文起头用它来为一成天的旅客供给更赢利的旅游。他们卖掉了这座家庭别墅,现在看来,最初一场战役是和新仆人在海边的停车位上展开。但是,情况很快就失控了,而不但仅是由于车轮夹钳。
  Bait是一种黑白,手工建造,16毫米胶片建造的电影。很多关于鱼、网、龙虾、长靴、绳结和渔篮的特写镜头让人想起了蒙太奇景点的理论。对分歧社会阶级的描写——可以说是阶级关系——也让人想起了英国电影中的社会现实主义传统。但是,最重要的是,在影象平分歧条理的电影历史参考文献之下,当前很多政治关联正在期待被发现。
  The picture-postcard idyll of the Cornwall fishing village is misleading. While fishing used to be a way of supporting oneself, wealthy London tourists have now descended and are displacing the locals, whose livelihood is thus threatened. The relationship between brothers Steven and Martin is also strained. Martin is a fisherman without a boat, since Steven started using it for far more lucrative tours for all the day-trippers. They’ve sold the family cottage and now it seems that the final battle to be fought is that with the new owners over the parking space next to the sea. Yet the situation soon gets out of hand, and not just because of the wheel clamp.
  Bait is a black-and-white film shot on hand-processed 16mm. Numerous close-ups of fish, nets, lobsters, wellington boots, knots and catch baskets bring to mind the theory of a montage of attractions. The depiction of the different social strata – one could speak of class relations – is also reminiscent of the tradition of social realism in British cinema. Above all, however, a whole lot of current political relevance is waiting to be discovered beneath the different layers of film historical references contained in the images.

获奖情况  

  第73届英国电影学院奖(2020)
  电影奖 最好英国影片(提名)
  电影奖 英国外乡精采童贞作(提名) 马克·詹金

  第22届英国自力电影奖(2019)
  最好英国自力电影(提名)
  最好导演(提名) 马克·詹金
  制片冲破
  最好剪辑(提名)

  第40届伦敦影评人协会奖(2020)
  年度英国/爱尔兰电影(提名)
  年度冲破英国/爱尔兰电影人(提名) 马克·詹金
  1. Video
  2. ID                                       : 1
  3. Format                                   : AVC
  4. Format/Info                              : Advanced Video Codec
  5. Format profile                           : [email protected]
  6. Format settings                          : CABAC / 5 Ref Frames
  7. Format settings, CABAC                   : Yes
  8. Format settings, Reference frames        : 5 frames
  9. Codec ID                                 : V_MPEG4/ISO/AVC
  10. Duration                                 : 1 h 28 min
  11. Bit rate                                 : 5 011 kb/s
  12. Width                                    : 1 416 pixels
  13. Height                                   : 1 076 pixels
  14. Display aspect ratio                     : 4:3
  15. Frame rate mode                          : Constant
  16. Frame rate                               : 24.000 FPS
  17. Color space                              : YUV
  18. Chroma subsampling                       : 4:2:0
  19. Bit depth                                : 8 bits
  20. Scan type                                : Progressive
  21. Bits/(Pixel*Frame)                       : 0.137
  22. Stream size                              : 3.11 GiB (96%)
  23. Title                                    : Bait.2019.1080p.WEB-DL.DD2.0.H264-FGT
  24. Language                                 : English
  25. Default                                  : Yes
  26. Forced                                   : No
  27. Color range                              : Limited
  28. Color primaries                          : BT.709
  29. Transfer characteristics                 : BT.709
  30. Matrix coefficients                      : BT.709

  31. Audio
  32. ID                                       : 2
  33. Format                                   : AC-3
  34. Format/Info                              : Audio Coding 3
  35. Commercial name                          : Dolby Digital
  36. Codec ID                                 : A_AC3
  37. Duration                                 : 1 h 28 min
  38. Bit rate mode                            : Constant
  39. Bit rate                                 : 192 kb/s
  40. Channel(s)                               : 2 channels
  41. Channel layout                           : L R
  42. Sampling rate                            : 48.0 kHz
  43. Frame rate                               : 31.250 FPS (1536 SPF)
  44. Bit depth                                : 16 bits
  45. Compression mode                         : Lossy
  46. Stream size                              : 122 MiB (4%)
  47. Title                                    : Bait.2019.1080p.WEB-DL.DD2.0.H264-FGT
  48. Language                                 : English
  49. Service kind                             : Complete Main
  50. Default                                  : Yes
  51. Forced                                   : No

  52. Text
  53. ID                                       : 3
  54. Format                                   : UTF-8
  55. Codec ID                                 : S_TEXT/UTF8
  56. Codec ID/Info                            : UTF-8 Plain Text
  57. Duration                                 : 1 h 17 min
  58. Bit rate                                 : 24 b/s
  59. Count of elements                        : 545
  60. Stream size                              : 13.7 KiB (0%)
  61. Language                                 : English
  62. Default                                  : Yes
  63. Forced                                   : No

  64. Menu
  65. 00:00:00.000                             : en:Chapter 1
  66. 00:21:07.958                             : en:Chapter 2
  67. 00:42:37.416                             : en:Chapter 3
  68. 01:04:09.332                             : en:Chapter 4
  69. 01:24:36.915                             : en:Chapter 5
复制代码

诱饵/饵 Bait.2019.1080p.WEB-DL.DD2.0.H264-FGT 3.23GB-2.png 诱饵/饵 Bait.2019.1080p.WEB-DL.DD2.0.H264-FGT 3.23GB-3.png 诱饵/饵 Bait.2019.1080p.WEB-DL.DD2.0.H264-FGT 3.23GB-4.png






回复

使用道具 举报

懒得打字嘛,点击右侧快捷回复 【右侧内容,后台自定义】
您需要登录后才可以回帖 登录 | 立即加入

本版积分规则

Archiver|小黑屋| 蓝光电影网 |网站地图

Copyright © 2021 Comsenz Inc. Powered by 蓝光电影网

蓝光电影网

本站内容由用户自主分享和转载自互联网,转载目的在于传递更多信息,并不代表本网赞同其观点和对其真实性负责。

如有侵权、违反国家法律政策行为,请联系我们,我们会第一时间及时清除和处理!

举报反馈邮箱:[email protected]

快速回复 返回顶部 返回列表