找回密码

蓝光电影网

查看: 260|回复: 1

[动作] 越域重生 Edge.of.Fear.2018.1080p.NF.WEBRip.DD5.1.x264-CREATiVE 4.58GB

[复制链接]
蓝光币
382
发表于 2020-1-20 15:19:14 | 显示全部楼层 |阅读模式
越域更生 Edge.of.Fear.2018.1080p.NF.WEBRip.DD5.1.x264-CREATiVE 4.58GB-1.png

译  名 越域更生 / Bleed / 恐惧边沿
片  名 Edge of Fear
年  代 2018
产  地 美国
类  别 行动 / 惊悚 / 犯罪
语  言 英语 / 汉语普通话
上映日期 2018-08-01(美国) / 2019-08-29(中国大陆收集) / 2019-11-07(中国大陆)
IMDb评分  4.4/10 from 1707 users
IMDb链接  https://www.imdb.com/title/tt7149916
豆瓣评分 3.9/10 from 1083 users
豆瓣链接 https://movie.douban.com/subject/30289993/
片  长 91分钟
导  演 鲍比·罗斯 Bobby Roth
编  剧 Scott Barkan / Gregg Zehentner / 张大星 Daxing Zhang
主  演 洛克蒙·邓巴 Rockmond Dunbar
       朱珠 Zhu Zhu
       林雨申 Shen Lin
       罗伯特·克耐普 Robert Knepper
       托姆·威廉姆斯 Thom Williams
       罗伯特·帕特里克 Robert Patrick
       阿莫里·诺拉斯科 Amaury Nolasco
       安迪·麦肯济 Andy Mackenzie
       乔迪·琳·欧基菲 Jodi Lyn O'Keefe
       约翰·爱德华·李 John Edward Lee
       Dean Cudworth
       Robert Crayton
       Nick J. McNeil
       Stacy Hall
       Trent Brya


标  签 犯罪 | 烂电影 | 行动 | 烂片 | 美国 | 不保举 | 美国电影 | 为林雨申来的

简  介  

  股票掮客人麦克在中国出差时代心脏病突发,被送入医院急救。一年后,他约请拯救仇人,来自中国的医生林亮、罗兰佳耦到他新买的森林别墅度假。一伙劫匪劫持了警局的囚车,救出了制毒师维克多,差人牺牲前打穿了劫匪汽车的油箱。为了与接应的车获得联系,他们闯入了麦克的森林别墅。麦克在与强盗对峙中惨遭杀戮。目击好友被杀、妻子蒙受侮辱,一向以救报酬天职的林亮血性被激起,他举刀冲向匪首杰克,却反被职业杀名片中了胸膛。一切人都以为他已经死了,只要他的妻子没有放弃。命悬一线的林亮操纵专业的医学常识让自己的生命与时候赛跑,为了拯救妻儿于危难,他向劫匪倡议了还击……
  1. Video
  2. ID                                       : 1
  3. Format                                   : AVC
  4. Format/Info                              : Advanced Video Codec
  5. Format profile                           : [email protected]
  6. Format settings                          : CABAC / 3 Ref Frames
  7. Format settings, CABAC                   : Yes
  8. Format settings, Reference frames        : 3 frames
  9. Codec ID                                 : V_MPEG4/ISO/AVC
  10. Duration                                 : 1 h 31 min
  11. Bit rate mode                            : Variable
  12. Bit rate                                 : 6 810 kb/s
  13. Maximum bit rate                         : 10.2 Mb/s
  14. Width                                    : 1 920 pixels
  15. Height                                   : 1 080 pixels
  16. Display aspect ratio                     : 16:9
  17. Frame rate mode                          : Constant
  18. Frame rate                               : 23.976 (24000/1001) FPS
  19. Color space                              : YUV
  20. Chroma subsampling                       : 4:2:0
  21. Bit depth                                : 8 bits
  22. Scan type                                : Progressive
  23. Bits/(Pixel*Frame)                       : 0.137
  24. Stream size                              : 4.34 GiB (95%)
  25. Writing library                          : x264 core 148 r2715 7e75228
  26. Encoding settings                        : cabac=1 / ref=3 / deblock=1:0:0 / analyse=0x1:0x111 / me=umh / subme=10 / psy=1 / psy_rd=1.00:0.00 / mixed_ref=1 / me_range=24 / chroma_me=1 / trellis=2 / 8x8dct=0 / cqm=0 / deadzone=21,11 / fast_pskip=1 / chroma_qp_offset=-2 / threads=8 / lookahead_threads=1 / sliced_threads=0 / nr=0 / decimate=1 / interlaced=0 / bluray_compat=0 / stitchable=1 / constrained_intra=0 / bframes=2 / b_pyramid=0 / b_adapt=2 / b_bias=0 / direct=3 / weightb=1 / open_gop=0 / weightp=2 / keyint=48 / keyint_min=25 / scenecut=0 / intra_refresh=0 / rc_lookahead=48 / rc=2pass / mbtree=1 / bitrate=6810 / ratetol=1.0 / qcomp=0.50 / qpmin=6 / qpmax=51 / qpstep=4 / cplxblur=20.0 / qblur=0.5 / vbv_maxrate=10215 / vbv_bufsize=13620 / nal_hrd=vbr / filler=0 / ip_ratio=1.40 / aq=1:1.00
  27. Default                                  : Yes
  28. Forced                                   : No

  29. Audio
  30. ID                                       : 2
  31. Format                                   : AC-3
  32. Format/Info                              : Audio Coding 3
  33. Commercial name                          : Dolby Digital
  34. Codec ID                                 : A_AC3
  35. Duration                                 : 1 h 31 min
  36. Bit rate mode                            : Constant
  37. Bit rate                                 : 384 kb/s
  38. Channel(s)                               : 6 channels
  39. Channel layout                           : L R C LFE Ls Rs
  40. Sampling rate                            : 48.0 kHz
  41. Frame rate                               : 31.250 FPS (1536 SPF)
  42. Bit depth                                : 16 bits
  43. Compression mode                         : Lossy
  44. Stream size                              : 251 MiB (5%)
  45. Language                                 : English
  46. Service kind                             : Complete Main
  47. Default                                  : Yes
  48. Forced                                   : No

  49. Text #1
  50. ID                                       : 3
  51. Format                                   : UTF-8
  52. Codec ID                                 : S_TEXT/UTF8
  53. Codec ID/Info                            : UTF-8 Plain Text
  54. Duration                                 : 1 h 26 min
  55. Bit rate                                 : 1 b/s
  56. Count of elements                        : 55
  57. Stream size                              : 829 Bytes (0%)
  58. Title                                    : Forced
  59. Language                                 : English
  60. Default                                  : Yes
  61. Forced                                   : Yes

  62. Text #2
  63. ID                                       : 4
  64. Format                                   : UTF-8
  65. Codec ID                                 : S_TEXT/UTF8
  66. Codec ID/Info                            : UTF-8 Plain Text
  67. Duration                                 : 1 h 30 min
  68. Bit rate                                 : 31 b/s
  69. Count of elements                        : 813
  70. Stream size                              : 20.9 KiB (0%)
  71. Language                                 : English
  72. Default                                  : No
  73. Forced                                   : No

  74. Text #3
  75. ID                                       : 5
  76. Format                                   : UTF-8
  77. Codec ID                                 : S_TEXT/UTF8
  78. Codec ID/Info                            : UTF-8 Plain Text
  79. Duration                                 : 1 h 28 min
  80. Bit rate                                 : 26 b/s
  81. Count of elements                        : 646
  82. Stream size                              : 17.0 KiB (0%)
  83. Language                                 : Spanish
  84. Default                                  : No
  85. Forced                                   : No

  86. Text #4
  87. ID                                       : 6
  88. Format                                   : UTF-8
  89. Codec ID                                 : S_TEXT/UTF8
  90. Codec ID/Info                            : UTF-8 Plain Text
  91. Duration                                 : 1 h 29 min
  92. Bit rate                                 : 26 b/s
  93. Count of elements                        : 651
  94. Stream size                              : 17.0 KiB (0%)
  95. Language                                 : French
  96. Default                                  : No
  97. Forced                                   : No

  98. Text #5
  99. ID                                       : 7
  100. Format                                   : UTF-8
  101. Codec ID                                 : S_TEXT/UTF8
  102. Codec ID/Info                            : UTF-8 Plain Text
  103. Duration                                 : 1 h 28 min
  104. Bit rate                                 : 27 b/s
  105. Count of elements                        : 649
  106. Stream size                              : 17.7 KiB (0%)
  107. Language                                 : German
  108. Default                                  : No
  109. Forced                                   : No

  110. Text #6
  111. ID                                       : 8
  112. Format                                   : UTF-8
  113. Codec ID                                 : S_TEXT/UTF8
  114. Codec ID/Info                            : UTF-8 Plain Text
  115. Duration                                 : 1 h 29 min
  116. Bit rate                                 : 26 b/s
  117. Count of elements                        : 646
  118. Stream size                              : 17.0 KiB (0%)
  119. Language                                 : Italian
  120. Default                                  : No
  121. Forced                                   : No
复制代码

越域更生 Edge.of.Fear.2018.1080p.NF.WEBRip.DD5.1.x264-CREATiVE 4.58GB-2.png 越域更生 Edge.of.Fear.2018.1080p.NF.WEBRip.DD5.1.x264-CREATiVE 4.58GB-3.png 越域更生 Edge.of.Fear.2018.1080p.NF.WEBRip.DD5.1.x264-CREATiVE 4.58GB-4.png






回复

使用道具 举报

蓝光币
2563
发表于 2020-1-20 19:27:42 | 显示全部楼层
楼主发贴辛苦了,谢谢楼主分享!我觉得蓝光电影网是注册对了!
回复 支持 反对

使用道具 举报

懒得打字嘛,点击右侧快捷回复 【右侧内容,后台自定义】
您需要登录后才可以回帖 登录 | 立即加入

本版积分规则

Archiver|小黑屋| 蓝光电影网 |网站地图

Copyright © 2021 Comsenz Inc. Powered by 蓝光电影网

蓝光电影网

本站内容由用户自主分享和转载自互联网,转载目的在于传递更多信息,并不代表本网赞同其观点和对其真实性负责。

如有侵权、违反国家法律政策行为,请联系我们,我们会第一时间及时清除和处理!

举报反馈邮箱:[email protected]

快速回复 返回顶部 返回列表