找回密码

蓝光电影网

查看: 378|回复: 2

[剧情] 四月是你的谎言 Your.Lie.In.April.2016.JAPANESE.1080p.BluRay.x264.DTS-FGT 10.37GB

[复制链接]
蓝光币
382
发表于 2020-1-20 23:27:09 | 显示全部楼层 |阅读模式
四月是你的假话 Your.Lie.In.April.2016.JAPANESE.1080p.BluRay.x264.DTS-FGT 10.37GB-1.png

译  名 四月是你的假话 / Your Lie in April
片  名 四月は君の嘘
年  代 2016
产  地 日本
类  别 剧情 / 恋爱 / 音乐
语  言 日语
上映日期 2016-09-10(日本)
IMDb评分  7.0/10 from 847 users
IMDb链接  https://www.imdb.com/title/tt5672048
豆瓣评分 6.0/10 from 8415 users
豆瓣链接 https://movie.douban.com/subject/26599076/
片  长 122分钟
导  演 新城毅彦 Takehiko Shinjo
编  剧 新川直司 Naoshi Arakawa / 龙居由佳里 Yukari Tatsui
主  演 广濑铃 Suzu Hirose
       山崎圣人 Kento Yamazaki
       石井杏奈 Ishii Anna
       中川弘愿 Taishi Nakagawa
       甲本雅裕 Masahiro K?moto
       本田博太郎 Hirotar? Honda
       板谷由夏 Yuka Itaya
       檀丽 Rei Dan


标  签 日本 | 漫画改编 | 恋爱 | 青春 | 漫改 | 校园 | 音乐 | 2016

简  介  

  原作曾在2011年5月至2015年3月在《月刊少年MAGAJIN》上连载,单行本全11卷累计刊行部数跨越400万册的人气作品,曾获得了第37届讲谈社漫画奖大奖。2014年漫画被改编成电视动画,报告因母亲的归天而起头没法弹钢琴的天赋钢琴少年有马公生碰见了任性奔放的小提琴手宫园薰,钢琴与母亲的回忆出现,同时宫园薰身上的奥秘也让二人的青春生活发生了变化。
  1. Video
  2. ID                                       : 1
  3. Format                                   : AVC
  4. Format/Info                              : Advanced Video Codec
  5. Format profile                           : [email protected]
  6. Format settings                          : CABAC / 4 Ref Frames
  7. Format settings, CABAC                   : Yes
  8. Format settings, Reference frames        : 4 frames
  9. Codec ID                                 : V_MPEG4/ISO/AVC
  10. Duration                                 : 2 h 1 min
  11. Bit rate                                 : 11.5 Mb/s
  12. Width                                    : 1 920 pixels
  13. Height                                   : 1 036 pixels
  14. Display aspect ratio                     : 1.85:1
  15. Frame rate mode                          : Constant
  16. Frame rate                               : 23.976 (24000/1001) FPS
  17. Color space                              : YUV
  18. Chroma subsampling                       : 4:2:0
  19. Bit depth                                : 8 bits
  20. Scan type                                : Progressive
  21. Bits/(Pixel*Frame)                       : 0.241
  22. Stream size                              : 9.71 GiB (94%)
  23. Title                                    : Your.Lie.In.April.2016.JAPANESE.1080p.BluRay.x264.DTS-FGT
  24. Writing library                          : x264 core 148 r2795M aaa9aa8
  25. Encoding settings                        : cabac=1 / ref=4 / deblock=1:-2:-2 / analyse=0x3:0x113 / me=umh / subme=9 / psy=1 / psy_rd=1.00:0.15 / mixed_ref=1 / me_range=16 / chroma_me=1 / trellis=2 / 8x8dct=1 / cqm=0 / deadzone=21,11 / fast_pskip=1 / chroma_qp_offset=-3 / threads=24 / lookahead_threads=3 / sliced_threads=0 / nr=0 / decimate=1 / interlaced=0 / bluray_compat=0 / constrained_intra=0 / bframes=3 / b_pyramid=2 / b_adapt=1 / b_bias=0 / direct=3 / weightb=1 / open_gop=0 / weightp=2 / keyint=250 / keyint_min=25 / scenecut=40 / intra_refresh=0 / rc_lookahead=50 / rc=2pass / mbtree=1 / bitrate=11500 / ratetol=1.0 / qcomp=0.60 / qpmin=0 / qpmax=69 / qpstep=4 / cplxblur=20.0 / qblur=0.5 / vbv_maxrate=31250 / vbv_bufsize=31250 / nal_hrd=none / filler=0 / ip_ratio=1.40 / aq=1:1.00
  26. Language                                 : Japanese
  27. Default                                  : Yes
  28. Forced                                   : No

  29. Audio
  30. ID                                       : 2
  31. Format                                   : DTS
  32. Format/Info                              : Digital Theater Systems
  33. Codec ID                                 : A_DTS
  34. Duration                                 : 2 h 1 min
  35. Bit rate mode                            : Constant
  36. Bit rate                                 : 768 kb/s
  37. Channel(s)                               : 6 channels
  38. Channel layout                           : C L R Ls Rs LFE
  39. Sampling rate                            : 48.0 kHz
  40. Frame rate                               : 93.750 FPS (512 SPF)
  41. Bit depth                                : 24 bits
  42. Compression mode                         : Lossy
  43. Stream size                              : 666 MiB (6%)
  44. Title                                    : Your.Lie.In.April.2016.JAPANESE.1080p.BluRay.x264.DTS-FGT
  45. Language                                 : Japanese
  46. Default                                  : Yes
  47. Forced                                   : No

  48. Text
  49. ID                                       : 3
  50. Format                                   : UTF-8
  51. Codec ID                                 : S_TEXT/UTF8
  52. Codec ID/Info                            : UTF-8 Plain Text
  53. Duration                                 : 1 h 57 min
  54. Bit rate                                 : 26 b/s
  55. Count of elements                        : 985
  56. Stream size                              : 23.1 KiB (0%)
  57. Language                                 : English
  58. Default                                  : Yes
  59. Forced                                   : No

  60. Menu
  61. 00:00:00.000                             : en:Chapter 01
  62. 00:05:08.433                             : en:Chapter 02
  63. 00:14:21.986                             : en:Chapter 03
  64. 00:24:00.814                             : en:Chapter 04
  65. 00:31:40.482                             : en:Chapter 05
  66. 00:45:39.612                             : en:Chapter 06
  67. 00:53:46.890                             : en:Chapter 07
  68. 01:01:31.563                             : en:Chapter 08
  69. 01:10:23.010                             : en:Chapter 09
  70. 01:15:54.800                             : en:Chapter 10
  71. 01:20:29.324                             : en:Chapter 11
  72. 01:26:59.089                             : en:Chapter 12
  73. 01:33:53.503                             : en:Chapter 13
  74. 01:39:37.930                             : en:Chapter 14
  75. 01:48:21.495                             : en:Chapter 15
  76. 01:56:48.752                             : en:Chapter 16
复制代码

232449gqeb9nnpqnlnswrr.png 四月是你的假话 Your.Lie.In.April.2016.JAPANESE.1080p.BluRay.x264.DTS-FGT 10.37GB-3.png 四月是你的假话 Your.Lie.In.April.2016.JAPANESE.1080p.BluRay.x264.DTS-FGT 10.37GB-4.png






回复

使用道具 举报

蓝光币
1476
发表于 2020-1-22 14:16:40 | 显示全部楼层
楼主发贴辛苦了,谢谢楼主分享!我觉得蓝光电影网是注册对了!
回复 支持 反对

使用道具 举报

蓝光币
10
发表于 7 天前 | 显示全部楼层
谢谢楼主分享
回复 支持 反对

使用道具 举报

懒得打字嘛,点击右侧快捷回复 【右侧内容,后台自定义】
您需要登录后才可以回帖 登录 | 立即加入

本版积分规则

Archiver|小黑屋| 蓝光电影网 |网站地图

Copyright © 2021 Comsenz Inc. Powered by 蓝光电影网

蓝光电影网

本站内容由用户自主分享和转载自互联网,转载目的在于传递更多信息,并不代表本网赞同其观点和对其真实性负责。

如有侵权、违反国家法律政策行为,请联系我们,我们会第一时间及时清除和处理!

举报反馈邮箱:[email protected]

快速回复 返回顶部 返回列表