找回密码

蓝光电影网

查看: 193|回复: 0

[恐怖] 亡灵艺术 Art.of.The.Dead.2019.1080p.AMZN.WEBRip.DDP5.1.x264-iKA 6.90GB

[复制链接]
蓝光币
426
发表于 2020-1-20 23:31:37 | 显示全部楼层 |阅读模式
亡灵艺术 Art.of.The.Dead.2019.1080p.AMZN.WEBRip.DDP5.1.x264-iKA 6.90GB-1.png

译  名 亡灵艺术
片  名 Art of the Dead
年  代 2018
产  地 美国
类  别 可骇
语  言 英语
上映日期 2019-10-04(美国)
IMDb评分  6.3/10 from 1307 users
IMDb链接  https://www.imdb.com/title/tt7612032
豆瓣评分 0/10 from 0 users
豆瓣链接 https://movie.douban.com/subject/30257411/
片  长 97分钟
导  演 罗尔夫·坎尼斯基 Rolfe Kanefsky
编  剧 罗尔夫·坎尼斯基 Rolfe Kanefsky / Michael Mahal / Sonny Mahal
主  演 塔拉·雷德 Tara Reid
       理查德·格里克 Richard Grieco
       杰西卡·莫里斯 Jessica Morris
       Aaron Groben
       Scarlet Salem
       Mark Justice
       Alex Rinehart
       Lukas Hassel
       Lainee Rhodes
       Sergio Rizzuto
       Paul Gunn
       Hans Hernke
       Labrandon Shead
       Audrey Holland


标  签 美国 | 可骇 | 怪物 | 美国电影 | 喜劇 | 3M稀影基地论坛 | 3M稀影基地

简  介  

  When Dylan Wilson purchases a collection of seven paintings to hang in his wealthy estate, he has no idea what horrors he has unleashed for himself, his wife; Gina, his college son; Louis, his teen-age daughter; Donna, and his two little kids. Only Father Mendale knows what evils lurk inside this deadly art and the history of Dorian Wilde; the artist who made a pact with dark forces when he created these paintings that represent the seven deadly sins. Now, anyone who comes in contact with these pictures are corrupted by Pride, Lust, Gluttony, Sloth, Greed, Envy, and Wrath. It's up to Father Mendale and Louis' girlfriend; Kim to save Dylan and his family before they are all destroyed by the Art of the Dead.
  1. Video
  2. ID                                       : 1
  3. Format                                   : AVC
  4. Format/Info                              : Advanced Video Codec
  5. Format profile                           : [email protected]
  6. Format settings                          : CABAC / 4 Ref Frames
  7. Format settings, CABAC                   : Yes
  8. Format settings, Reference frames        : 4 frames
  9. Codec ID                                 : V_MPEG4/ISO/AVC
  10. Duration                                 : 1 h 37 min
  11. Bit rate mode                            : Constant
  12. Bit rate                                 : 10 000 kb/s
  13. Width                                    : 1 920 pixels
  14. Height                                   : 816 pixels
  15. Display aspect ratio                     : 2.35:1
  16. Frame rate mode                          : Constant
  17. Frame rate                               : 23.976 (24000/1001) FPS
  18. Color space                              : YUV
  19. Chroma subsampling                       : 4:2:0
  20. Bit depth                                : 8 bits
  21. Scan type                                : Progressive
  22. Bits/(Pixel*Frame)                       : 0.266
  23. Stream size                              : 6.47 GiB (94%)
  24. Default                                  : Yes
  25. Forced                                   : No
  26. Color range                              : Limited
  27. Color primaries                          : BT.709
  28. Transfer characteristics                 : BT.709
  29. Matrix coefficients                      : BT.709

  30. Audio
  31. ID                                       : 2
  32. Format                                   : E-AC-3
  33. Format/Info                              : Enhanced AC-3
  34. Commercial name                          : Dolby Digital Plus
  35. Codec ID                                 : A_EAC3
  36. Duration                                 : 1 h 37 min
  37. Bit rate mode                            : Constant
  38. Bit rate                                 : 640 kb/s
  39. Channel(s)                               : 6 channels
  40. Channel layout                           : L R C LFE Ls Rs
  41. Sampling rate                            : 48.0 kHz
  42. Frame rate                               : 31.250 FPS (1536 SPF)
  43. Compression mode                         : Lossy
  44. Stream size                              : 445 MiB (6%)
  45. Language                                 : English
  46. Service kind                             : Complete Main
  47. Default                                  : Yes
  48. Forced                                   : No

  49. Text
  50. ID                                       : 3
  51. Format                                   : UTF-8
  52. Codec ID                                 : S_TEXT/UTF8
  53. Codec ID/Info                            : UTF-8 Plain Text
  54. Duration                                 : 1 h 36 min
  55. Bit rate                                 : 55 b/s
  56. Count of elements                        : 1701
  57. Stream size                              : 38.8 KiB (0%)
  58. Title                                    : SDH
  59. Language                                 : English
  60. Default                                  : No
  61. Forced                                   : No
复制代码

亡灵艺术 Art.of.The.Dead.2019.1080p.AMZN.WEBRip.DDP5.1.x264-iKA 6.90GB-2.png 亡灵艺术 Art.of.The.Dead.2019.1080p.AMZN.WEBRip.DDP5.1.x264-iKA 6.90GB-3.png 亡灵艺术 Art.of.The.Dead.2019.1080p.AMZN.WEBRip.DDP5.1.x264-iKA 6.90GB-4.png






回复

使用道具 举报

懒得打字嘛,点击右侧快捷回复 【右侧内容,后台自定义】
您需要登录后才可以回帖 登录 | 立即加入

本版积分规则

Archiver|小黑屋| 蓝光电影网 |网站地图

Copyright © 2021 Comsenz Inc. Powered by 蓝光电影网

蓝光电影网

本站内容由用户自主分享和转载自互联网,转载目的在于传递更多信息,并不代表本网赞同其观点和对其真实性负责。

如有侵权、违反国家法律政策行为,请联系我们,我们会第一时间及时清除和处理!

举报反馈邮箱:[email protected]

快速回复 返回顶部 返回列表