找回密码

蓝光电影网

查看: 220|回复: 1

[剧情] 挑战者号之殇/挑战者号灾难 The.Challenger.Disaster.2019.720p.WEBRip.x264-ASSOCiATE 754.58MB

[复制链接]
蓝光币
382
发表于 2020-1-21 12:08:51 | 显示全部楼层 |阅读模式
应战者号之殇/应战者号灾难 The.Challenger.Disaster.2019.720p.WEBRip.x264-ASSOCiATE 754.58MB-1.png

译  名 应战者号之殇 / 应战者号灾难
片  名 The Challenger Disaster
年  代 2019
产  地 美国
类  别 剧情
语  言 英语
上映日期 2019-01-25(美国)
IMDb评分  6.5/10 from 860 users
IMDb链接  https://www.imdb.com/title/tt7783966
豆瓣评分 7.0/10 from 95 users
豆瓣链接 https://movie.douban.com/subject/30448638/
片  长 98分钟
导  演 Nathan VonMinden
编  剧 Nathan Vonminden
主  演 迪恩·凯恩 Dean Cain
       格伦·莫肖尔 Glenn Morshower
       Les Miles


标  签 美国 | 2019 | 剧情 | 列传 | 迪恩·凯恩 | 历史 | 美國 | 电影

简  介  

  本影片基于实在故事改编。在1986年应战者号升空爆炸的前夜,一位工程师竭尽尽力阻止飞船的发射。这位一腔热血的工程师争分多秒地争取中断这艘代价十亿美圆的应战者号飞船的发射,对峙以为O型密封环会故障生效并致使飞船全员毁灭。马歇尔太空飞翔公司做出了贸易层面的决议,而这位工程师做出了人性的决定。
  1. Video
  2. ID                                       : 1
  3. Format                                   : AVC
  4. Format/Info                              : Advanced Video Codec
  5. Format profile                           : [email protected]
  6. Format settings                          : CABAC / 5 Ref Frames
  7. Format settings, CABAC                   : Yes
  8. Format settings, Reference frames        : 5 frames
  9. Codec ID                                 : V_MPEG4/ISO/AVC
  10. Duration                                 : 1 h 38 min
  11. Bit rate                                 : 945 kb/s
  12. Width                                    : 1 280 pixels
  13. Height                                   : 532 pixels
  14. Display aspect ratio                     : 2.40:1
  15. Frame rate mode                          : Constant
  16. Frame rate                               : 23.976 (24000/1001) FPS
  17. Color space                              : YUV
  18. Chroma subsampling                       : 4:2:0
  19. Bit depth                                : 8 bits
  20. Scan type                                : Progressive
  21. Bits/(Pixel*Frame)                       : 0.058
  22. Stream size                              : 665 MiB (88%)
  23. Writing library                          : x264 core 159 r2991 1771b55
  24. Encoding settings                        : cabac=1 / ref=5 / deblock=1:-3:-3 / analyse=0x3:0x113 / me=hex / subme=8 / psy=1 / psy_rd=1.00:0.15 / mixed_ref=1 / me_range=16 / chroma_me=1 / trellis=2 / 8x8dct=1 / cqm=0 / deadzone=21,11 / fast_pskip=1 / chroma_qp_offset=-3 / threads=17 / lookahead_threads=2 / sliced_threads=0 / nr=0 / decimate=1 / interlaced=0 / bluray_compat=0 / constrained_intra=0 / bframes=3 / b_pyramid=2 / b_adapt=1 / b_bias=0 / direct=3 / weightb=1 / open_gop=0 / weightp=2 / keyint=250 / keyint_min=23 / scenecut=40 / intra_refresh=0 / rc_lookahead=50 / rc=crf / mbtree=1 / crf=18.0 / qcomp=0.60 / qpmin=0 / qpmax=69 / qpstep=4 / vbv_maxrate=17500 / vbv_bufsize=17500 / crf_max=0.0 / nal_hrd=none / filler=0 / ip_ratio=1.40 / aq=1:0.60
  25. Default                                  : Yes
  26. Forced                                   : No
  27. Color range                              : Limited
  28. Matrix coefficients                      : BT.709

  29. Audio
  30. ID                                       : 2
  31. Format                                   : AAC LC
  32. Format/Info                              : Advanced Audio Codec Low Complexity
  33. Codec ID                                 : A_AAC-2
  34. Duration                                 : 1 h 38 min
  35. Bit rate                                 : 126 kb/s
  36. Channel(s)                               : 2 channels
  37. Channel layout                           : L R
  38. Sampling rate                            : 44.1 kHz
  39. Frame rate                               : 43.066 FPS (1024 SPF)
  40. Compression mode                         : Lossy
  41. Stream size                              : 88.3 MiB (12%)
  42. Language                                 : English
  43. Default                                  : Yes
  44. Forced                                   : No

  45. Text
  46. ID                                       : 3
  47. Format                                   : UTF-8
  48. Codec ID                                 : S_TEXT/UTF8
  49. Codec ID/Info                            : UTF-8 Plain Text
  50. Duration                                 : 1 h 33 min
  51. Bit rate                                 : 87 b/s
  52. Count of elements                        : 1791
  53. Stream size                              : 59.7 KiB (0%)
  54. Language                                 : English
  55. Default                                  : No
  56. Forced                                   : No
复制代码

应战者号之殇/应战者号灾难 The.Challenger.Disaster.2019.720p.WEBRip.x264-ASSOCiATE 754.58MB-2.png






回复

使用道具 举报

蓝光币
2563
发表于 2020-1-21 19:43:29 | 显示全部楼层
楼主发贴辛苦了,谢谢楼主分享!我觉得蓝光电影网是注册对了!
回复 支持 反对

使用道具 举报

懒得打字嘛,点击右侧快捷回复 【右侧内容,后台自定义】
您需要登录后才可以回帖 登录 | 立即加入

本版积分规则

Archiver|小黑屋| 蓝光电影网 |网站地图

Copyright © 2021 Comsenz Inc. Powered by 蓝光电影网

蓝光电影网

本站内容由用户自主分享和转载自互联网,转载目的在于传递更多信息,并不代表本网赞同其观点和对其真实性负责。

如有侵权、违反国家法律政策行为,请联系我们,我们会第一时间及时清除和处理!

举报反馈邮箱:[email protected]

快速回复 返回顶部 返回列表