找回密码

蓝光电影网

查看: 218|回复: 1

[剧情] 泡吧侦探3 The.Last.Shot.In.The.Bar.2017.JAPANESE.1080p.BluRay.x264-iKiW 9.75GB

[复制链接]
蓝光币
382
发表于 2020-1-22 15:16:54 | 显示全部楼层 |阅读模式
泡吧侦察3 The.Last.Shot.In.The.Bar.2017.JAPANESE.1080p.BluRay.x264-iKiW 9.75GB-1.png

译  名 泡吧侦察3 / Tantei wa bar ni iru 3 / The Last Shot in the Bar
片  名 探偵はBARにいる3
年  代 2017
产  地 日本
类  别 剧情
语  言 日语
上映日期 2017-12-01(日本)
IMDb评分  5.9/10 from 95 users
IMDb链接  https://www.imdb.com/title/tt7058618
豆瓣评分 6.2/10 from 1006 users
豆瓣链接 https://movie.douban.com/subject/24719840/
片  长 122分钟
导  演 吉田照幸 Teruyuki Yoshida
编  剧 古泽良太 Ryota Kosawa
主  演 大泉洋 Y? ?izumi
       松田龙平 Ry?hei Matsuda
       北川景子 Keiko Kitagawa
       中川雅也 Lily Franky
       前田敦子 Atsuko Maeda
       志尊淳 Jun Shison
       松重丰 Yutaka Matsushige
       铃木砂羽 Sawa Suzuki
       儿岛雄一 Magy
       田口智朗 Tomorowo Taguchi


标  签 日本 | 松田龙平 | 大泉洋 | 日本电影 | 北川景子 | 2017 | 松田龍平 | 推理

简  介  

  侦察一如平常在熟悉的酒吧里消磨时候,这时来了活。客户是侦察的助手高田的学弟。他的女朋友玲子失落了。侦察赞成帮助寻觅她,他发现玲子不但以模特身份签约了一家名叫“纯洁的心”的事务所,同时还在某个名声不太好的场所兼职。在观察进程中,他们碰到了玲子兼职场所的老板麻里。很快,麻里在两个硬朗汉子的陪伴下再次出现。她得知侦察和助手正在处处观察,因而把他们打了个鼻青脸肿。虽然如此,侦察没有是以而畏缩并继续展开观察。他得知纯洁的苦衷务所的掌管者是个名叫北条的奥秘人物,而他具有的北条团体则是札幌市最大的团体之一......

获奖情况  

  第41届日本电影学院奖(2018)
  最好男配角(提名) 大泉洋
  最好男配角(提名) 松田龙平
  最好女配角(提名) 北川景子
  1. Video
  2. ID                                       : 1
  3. Format                                   : AVC
  4. Format/Info                              : Advanced Video Codec
  5. Format profile                           : [email protected]
  6. Format settings                          : CABAC / 4 Ref Frames
  7. Format settings, CABAC                   : Yes
  8. Format settings, Reference frames        : 4 frames
  9. Codec ID                                 : V_MPEG4/ISO/AVC
  10. Duration                                 : 2 h 2 min
  11. Bit rate                                 : 10.8 Mb/s
  12. Width                                    : 1 920 pixels
  13. Height                                   : 1 036 pixels
  14. Display aspect ratio                     : 1.85:1
  15. Frame rate mode                          : Constant
  16. Frame rate                               : 23.976 (24000/1001) FPS
  17. Color space                              : YUV
  18. Chroma subsampling                       : 4:2:0
  19. Bit depth                                : 8 bits
  20. Scan type                                : Progressive
  21. Bits/(Pixel*Frame)                       : 0.226
  22. Stream size                              : 9.20 GiB (94%)
  23. Writing library                          : x264 core 129 r2245+704+36 8e61944 tMod+MixAQ [[email protected]:2:0 X86_64]
  24. Encoding settings                        : cabac=1 / ref=4 / deblock=1:-3:-3 / analyse=0x3:0x133 / me=umh / subme=11 / psy=1 / fade_compensate=0.00 / psy_rd=1.05:0.10 / mixed_ref=1 / me_range=64 / chroma_me=1 / trellis=2 / 8x8dct=1 / cqm=0 / deadzone=21,11 / fast_pskip=0 / chroma_qp_offset=-3 / threads=18 / lookahead_threads=3 / sliced_threads=0 / nr=0 / decimate=0 / interlaced=0 / bluray_compat=0 / constrained_intra=0 / fgo=0 / bframes=10 / b_pyramid=2 / b_adapt=2 / b_bias=0 / direct=3 / weightb=1 / open_gop=0 / weightp=2 / keyint=250 / keyint_min=23 / scenecut=40 / intra_refresh=0 / rc_lookahead=80 / rc=2pass / mbtree=1 / bitrate=10788 / ratetol=1.0 / qcomp=0.70 / qpmin=0 / qpmax=69 / qpstep=4 / cplxblur=20.0 / qblur=0.5 / ip_ratio=1.40 / aq=1 / aq-strength=0.85 / aq-sensitivity=10.00 / aq-ifactor=1.00 / aq-pfactor=1.00 / aq-bfactor=1.00 / aq2=0
  25. Language                                 : Japanese
  26. Default                                  : Yes
  27. Forced                                   : No

  28. Audio
  29. ID                                       : 2
  30. Format                                   : AC-3
  31. Format/Info                              : Audio Coding 3
  32. Commercial name                          : Dolby Digital
  33. Codec ID                                 : A_AC3
  34. Duration                                 : 2 h 2 min
  35. Bit rate mode                            : Constant
  36. Bit rate                                 : 640 kb/s
  37. Channel(s)                               : 6 channels
  38. Channel layout                           : L R C LFE Ls Rs
  39. Sampling rate                            : 48.0 kHz
  40. Frame rate                               : 31.250 FPS (1536 SPF)
  41. Bit depth                                : 16 bits
  42. Compression mode                         : Lossy
  43. Stream size                              : 559 MiB (6%)
  44. Language                                 : Japanese
  45. Service kind                             : Complete Main
  46. Default                                  : Yes
  47. Forced                                   : No

  48. Text #1
  49. ID                                       : 3
  50. Format                                   : UTF-8
  51. Codec ID                                 : S_TEXT/UTF8
  52. Codec ID/Info                            : UTF-8 Plain Text
  53. Duration                                 : 1 h 54 min
  54. Bit rate                                 : 38 b/s
  55. Count of elements                        : 1257
  56. Stream size                              : 32.2 KiB (0%)
  57. Language                                 : English
  58. Default                                  : Yes
  59. Forced                                   : No

  60. Text #2
  61. ID                                       : 4
  62. Format                                   : ASS
  63. Codec ID                                 : S_TEXT/ASS
  64. Codec ID/Info                            : Advanced Sub Station Alpha
  65. Duration                                 : 2 h 1 min
  66. Bit rate                                 : 78 b/s
  67. Count of elements                        : 1390
  68. Compression mode                         : Lossless
  69. Stream size                              : 69.8 KiB (0%)
  70. Language                                 : Chinese
  71. Default                                  : No
  72. Forced                                   : No

  73. Menu
  74. 00:00:00.000                             : en:00:00:00.000
  75. 00:07:18.938                             : en:00:07:18.938
  76. 00:13:44.698                             : en:00:13:44.698
  77. 00:19:04.268                             : en:00:19:04.268
  78. 00:28:40.301                             : en:00:28:40.301
  79. 00:34:14.719                             : en:00:34:14.719
  80. 00:44:08.145                             : en:00:44:08.145
  81. 00:54:41.778                             : en:00:54:41.778
  82. 01:00:28.082                             : en:01:00:28.082
  83. 01:06:49.714                             : en:01:06:49.714
  84. 01:15:12.090                             : en:01:15:12.090
  85. 01:21:46.818                             : en:01:21:46.818
  86. 01:28:02.402                             : en:01:28:02.402
  87. 01:42:38.694                             : en:01:42:38.694
  88. 01:52:10.306                             : en:01:52:10.306
复制代码

泡吧侦察3 The.Last.Shot.In.The.Bar.2017.JAPANESE.1080p.BluRay.x264-iKiW 9.75GB-2.png 泡吧侦察3 The.Last.Shot.In.The.Bar.2017.JAPANESE.1080p.BluRay.x264-iKiW 9.75GB-1.png 泡吧侦察3 The.Last.Shot.In.The.Bar.2017.JAPANESE.1080p.BluRay.x264-iKiW 9.75GB-4.png






回复

使用道具 举报

懒得打字嘛,点击右侧快捷回复 【右侧内容,后台自定义】
您需要登录后才可以回帖 登录 | 立即加入

本版积分规则

Archiver|小黑屋| 蓝光电影网 |网站地图

Copyright © 2021 Comsenz Inc. Powered by 蓝光电影网

蓝光电影网

本站内容由用户自主分享和转载自互联网,转载目的在于传递更多信息,并不代表本网赞同其观点和对其真实性负责。

如有侵权、违反国家法律政策行为,请联系我们,我们会第一时间及时清除和处理!

举报反馈邮箱:[email protected]

快速回复 返回顶部 返回列表