找回密码

蓝光电影网

查看: 780|回复: 2

[剧情] 恋如雨止 After.The.Rain.2018.JAPANESE.1080p.BluRay.x264-iKiW 9.75GB

[复制链接]
蓝光币
426
发表于 2020-1-22 15:23:29 | 显示全部楼层 |阅读模式
恋如雨止 After.The.Rain.2018.JAPANESE.1080p.BluRay.x264-iKiW 9.75GB-1.png

译  名 恋如雨止 / After the rain / 爱在雨过晴和时(台)
片  名 恋は雨上がりのように
年  代 2018
产  地 日本
类  别 剧情 / 恋爱
语  言 日语
上映日期 2018-05-25(日本)
IMDb评分  6.9/10 from 593 users
IMDb链接  https://www.imdb.com/title/tt7637350
豆瓣评分 7.3/10 from 9439 users
豆瓣链接 https://movie.douban.com/subject/27191173/
片  长 112分钟
导  演 永井聪 Akira Nagai
编  剧 眉月润 Jun Mayuzuki / 坂口理子 Riko Sakaguchi
主  演 小松菜奈 Nana Komatsu
       大泉洋 Y? ?izumi
       清野菜名 Nana Seino
       矶村勇斗 Hayato Isomura
       叶山奖之 Shono Hayama
       松本穗香 Honoka Matsumoto
       山本舞香 Maika Yamamoto
       滨田麻里 Mari Hamada
       户次重幸 Shigeyuki Totsugi
       吉田羊 Y? Yoshida


标  签 日本 | 青春 | 恋爱 | 漫画改编 | 恋爱 | 2018 | 纯爱 | 长大

简  介  

  橘晶,高中2年级,17岁。
  不擅长表达豪情的她,实在有单恋的工具,
  就是打工的家庭餐厅店长──近藤正己(45岁)。
  于青春十字路口障碍不前的她,
  与面临人生折返点的他,
  由这两人纺织而成的小小恋曲,开奏。
  1. Video
  2. ID                                       : 1
  3. Format                                   : AVC
  4. Format/Info                              : Advanced Video Codec
  5. Format profile                           : [email protected]
  6. Format settings                          : CABAC / 5 Ref Frames
  7. Format settings, CABAC                   : Yes
  8. Format settings, Reference frames        : 5 frames
  9. Codec ID                                 : V_MPEG4/ISO/AVC
  10. Duration                                 : 1 h 51 min
  11. Bit rate                                 : 11.8 Mb/s
  12. Width                                    : 1 920 pixels
  13. Height                                   : 806 pixels
  14. Display aspect ratio                     : 2.40:1
  15. Frame rate mode                          : Constant
  16. Frame rate                               : 23.976 (24000/1001) FPS
  17. Color space                              : YUV
  18. Chroma subsampling                       : 4:2:0
  19. Bit depth                                : 8 bits
  20. Scan type                                : Progressive
  21. Bits/(Pixel*Frame)                       : 0.319
  22. Stream size                              : 9.24 GiB (95%)
  23. Writing library                          : x264 core 129 r2245+704+36 8e61944 tMod+MixAQ [[email protected]:2:0 X86_64]
  24. Encoding settings                        : cabac=1 / ref=5 / deblock=1:-3:-3 / analyse=0x3:0x133 / me=umh / subme=11 / psy=1 / fade_compensate=0.00 / psy_rd=1.05:0.10 / mixed_ref=1 / me_range=64 / chroma_me=1 / trellis=2 / 8x8dct=1 / cqm=0 / deadzone=21,11 / fast_pskip=0 / chroma_qp_offset=-3 / threads=18 / lookahead_threads=3 / sliced_threads=0 / nr=0 / decimate=0 / interlaced=0 / bluray_compat=0 / constrained_intra=0 / fgo=0 / bframes=10 / b_pyramid=2 / b_adapt=2 / b_bias=0 / direct=3 / weightb=1 / open_gop=0 / weightp=2 / keyint=250 / keyint_min=23 / scenecut=40 / intra_refresh=0 / rc=2pass / mbtree=0 / bitrate=11834 / ratetol=1.0 / qcomp=0.70 / qpmin=0 / qpmax=69 / qpstep=4 / cplxblur=20.0 / qblur=0.5 / ip_ratio=1.40 / pb_ratio=1.30 / aq=1 / aq-strength=0.90 / aq-sensitivity=10.00 / aq-ifactor=1.00 / aq-pfactor=1.00 / aq-bfactor=1.00 / aq2=0
  25. Language                                 : Japanese
  26. Default                                  : Yes
  27. Forced                                   : No

  28. Audio
  29. ID                                       : 2
  30. Format                                   : AC-3
  31. Format/Info                              : Audio Coding 3
  32. Commercial name                          : Dolby Digital
  33. Codec ID                                 : A_AC3
  34. Duration                                 : 1 h 51 min
  35. Bit rate mode                            : Constant
  36. Bit rate                                 : 640 kb/s
  37. Channel(s)                               : 6 channels
  38. Channel layout                           : L R C LFE Ls Rs
  39. Sampling rate                            : 48.0 kHz
  40. Frame rate                               : 31.250 FPS (1536 SPF)
  41. Bit depth                                : 16 bits
  42. Compression mode                         : Lossy
  43. Stream size                              : 512 MiB (5%)
  44. Language                                 : Japanese
  45. Service kind                             : Complete Main
  46. Default                                  : Yes
  47. Forced                                   : No

  48. Text #1
  49. ID                                       : 3
  50. Format                                   : UTF-8
  51. Codec ID                                 : S_TEXT/UTF8
  52. Codec ID/Info                            : UTF-8 Plain Text
  53. Duration                                 : 1 h 47 min
  54. Bit rate                                 : 47 b/s
  55. Count of elements                        : 1281
  56. Stream size                              : 37.2 KiB (0%)
  57. Language                                 : English
  58. Default                                  : Yes
  59. Forced                                   : No

  60. Text #2
  61. ID                                       : 4
  62. Format                                   : ASS
  63. Codec ID                                 : S_TEXT/ASS
  64. Codec ID/Info                            : Advanced Sub Station Alpha
  65. Duration                                 : 1 h 50 min
  66. Bit rate                                 : 91 b/s
  67. Count of elements                        : 1534
  68. Compression mode                         : Lossless
  69. Stream size                              : 74.4 KiB (0%)
  70. Title                                    : Simplified
  71. Language                                 : Chinese
  72. Default                                  : No
  73. Forced                                   : No

  74. Text #3
  75. ID                                       : 5
  76. Format                                   : ASS
  77. Codec ID                                 : S_TEXT/ASS
  78. Codec ID/Info                            : Advanced Sub Station Alpha
  79. Duration                                 : 1 h 50 min
  80. Bit rate                                 : 91 b/s
  81. Count of elements                        : 1534
  82. Compression mode                         : Lossless
  83. Stream size                              : 74.4 KiB (0%)
  84. Title                                    : Traditional
  85. Language                                 : Chinese
  86. Default                                  : No
  87. Forced                                   : No

  88. Menu
  89. 00:00:00.000                             : zh:第 01 章
  90. 00:12:12.565                             : zh:第 02 章
  91. 00:21:10.102                             : zh:第 03 章
  92. 00:29:04.409                             : zh:第 04 章
  93. 00:38:10.413                             : zh:第 05 章
  94. 00:48:04.006                             : zh:第 06 章
  95. 00:56:29.928                             : zh:第 07 章
  96. 01:05:48.319                             : zh:第 08 章
  97. 01:18:09.476                             : zh:第 09 章
  98. 01:26:58.379                             : zh:第 10 章
  99. 01:37:25.256                             : zh:第 11 章
  100. 01:44:40.899                             : zh:第 12 章
复制代码

恋如雨止 After.The.Rain.2018.JAPANESE.1080p.BluRay.x264-iKiW 9.75GB-2.png 恋如雨止 After.The.Rain.2018.JAPANESE.1080p.BluRay.x264-iKiW 9.75GB-3.png 恋如雨止 After.The.Rain.2018.JAPANESE.1080p.BluRay.x264-iKiW 9.75GB-1.png






回复

使用道具 举报

懒得打字嘛,点击右侧快捷回复 【右侧内容,后台自定义】
您需要登录后才可以回帖 登录 | 立即加入

本版积分规则

Archiver|小黑屋| 蓝光电影网 |网站地图

Copyright © 2021 Comsenz Inc. Powered by 蓝光电影网

蓝光电影网

本站内容由用户自主分享和转载自互联网,转载目的在于传递更多信息,并不代表本网赞同其观点和对其真实性负责。

如有侵权、违反国家法律政策行为,请联系我们,我们会第一时间及时清除和处理!

举报反馈邮箱:[email protected]

快速回复 返回顶部 返回列表