找回密码

蓝光电影网

查看: 199|回复: 0

[恐怖] 夺魂 Hollow.2014.VIETNAMESE.1080p.NF.WEBRip.DDP2.0.x264-NTG 3.19GB

[复制链接]
蓝光币
382
发表于 2020-1-22 21:23:48 | 显示全部楼层 |阅读模式
夺魂 Hollow.2014.VIETNAMESE.1080p.NF.WEBRip.DDP2.0.x264-NTG 3.19GB-1.png

译  名 夺魂 / Hollow
片  名 ?o?t H?n
年  代 2014
产  地 越南
类  别 可骇
语  言 越南语
上映日期 2014-07-18(越南)
IMDb评分  5.8/10 from 140 users
IMDb链接  https://www.imdb.com/title/tt3595748
豆瓣评分 0/10 from 0 users
豆瓣链接 https://movie.douban.com/subject/25932061/
片  长 90分钟
导  演 陈光咸 Ham Tran
编  剧 陈光咸 Ham Tran
主  演 翘征 Kieu Chinh
       梅世侠 Jayvee Mai The Hiep
       Nguyen Hong An
       玉侠 Ngoc Hiep Nguyen
       凯特·绒 Nhung Kate
       Suboi
       清美 Thanh My
       陈宝山 Bao Son Tran


标  签 越南 | 电影 | 东南亚-越南 | 2014

简  介  

  A young girl falls into a river and drowns. When her body is found in a remote village along the river, her uncle arrives to claim her body, only to find that she is very much alive. But when she returns to her family, unexplainable occurrences lead them to believe she is possessed.
  1. Video
  2. ID                                       : 1
  3. Format                                   : AVC
  4. Format/Info                              : Advanced Video Codec
  5. Format profile                           : [email protected]
  6. Format settings                          : CABAC / 3 Ref Frames
  7. Format settings, CABAC                   : Yes
  8. Format settings, Reference frames        : 3 frames
  9. Codec ID                                 : V_MPEG4/ISO/AVC
  10. Duration                                 : 1 h 35 min
  11. Bit rate mode                            : Variable
  12. Bit rate                                 : 4 640 kb/s
  13. Maximum bit rate                         : 6 960 kb/s
  14. Width                                    : 1 920 pixels
  15. Height                                   : 1 080 pixels
  16. Display aspect ratio                     : 16:9
  17. Frame rate mode                          : Constant
  18. Frame rate                               : 24.000 FPS
  19. Color space                              : YUV
  20. Chroma subsampling                       : 4:2:0
  21. Bit depth                                : 8 bits
  22. Scan type                                : Progressive
  23. Bits/(Pixel*Frame)                       : 0.093
  24. Stream size                              : 3.10 GiB (97%)
  25. Writing library                          : x264 core 148 r2715 7e75228
  26. Encoding settings                        : cabac=1 / ref=3 / deblock=1:0:0 / analyse=0x1:0x111 / me=umh / subme=10 / psy=1 / psy_rd=1.00:0.00 / mixed_ref=1 / me_range=24 / chroma_me=1 / trellis=2 / 8x8dct=0 / cqm=0 / deadzone=21,11 / fast_pskip=1 / chroma_qp_offset=-2 / threads=8 / lookahead_threads=1 / sliced_threads=0 / nr=0 / decimate=1 / interlaced=0 / bluray_compat=0 / stitchable=1 / constrained_intra=0 / bframes=2 / b_pyramid=0 / b_adapt=2 / b_bias=0 / direct=3 / weightb=1 / open_gop=0 / weightp=2 / keyint=250 / keyint_min=24 / scenecut=0 / intra_refresh=0 / rc_lookahead=48 / rc=2pass / mbtree=1 / bitrate=4640 / ratetol=1.0 / qcomp=0.50 / qpmin=6 / qpmax=51 / qpstep=4 / cplxblur=20.0 / qblur=0.5 / vbv_maxrate=6960 / vbv_bufsize=9280 / nal_hrd=vbr / filler=0 / ip_ratio=1.40 / aq=1:1.00
  27. Default                                  : Yes
  28. Forced                                   : No

  29. Audio
  30. ID                                       : 2
  31. Format                                   : E-AC-3
  32. Format/Info                              : Enhanced AC-3
  33. Commercial name                          : Dolby Digital Plus
  34. Codec ID                                 : A_EAC3
  35. Duration                                 : 1 h 35 min
  36. Bit rate mode                            : Constant
  37. Bit rate                                 : 128 kb/s
  38. Channel(s)                               : 2 channels
  39. Channel layout                           : L R
  40. Sampling rate                            : 48.0 kHz
  41. Frame rate                               : 31.250 FPS (1536 SPF)
  42. Compression mode                         : Lossy
  43. Stream size                              : 87.7 MiB (3%)
  44. Title                                    : Vietnamese
  45. Language                                 : Vietnamese
  46. Service kind                             : Complete Main
  47. Default                                  : Yes
  48. Forced                                   : No

  49. Text #1
  50. ID                                       : 3
  51. Format                                   : UTF-8
  52. Codec ID                                 : S_TEXT/UTF8
  53. Codec ID/Info                            : UTF-8 Plain Text
  54. Duration                                 : 1 h 27 min
  55. Bit rate                                 : 33 b/s
  56. Count of elements                        : 888
  57. Stream size                              : 21.6 KiB (0%)
  58. Language                                 : English
  59. Default                                  : No
  60. Forced                                   : No

  61. Text #2
  62. ID                                       : 4
  63. Format                                   : UTF-8
  64. Codec ID                                 : S_TEXT/UTF8
  65. Codec ID/Info                            : UTF-8 Plain Text
  66. Duration                                 : 1 h 29 min
  67. Bit rate                                 : 44 b/s
  68. Count of elements                        : 894
  69. Stream size                              : 29.2 KiB (0%)
  70. Language                                 : Vietnamese
  71. Default                                  : No
  72. Forced                                   : No

  73. Text #3
  74. ID                                       : 5
  75. Format                                   : UTF-8
  76. Codec ID                                 : S_TEXT/UTF8
  77. Codec ID/Info                            : UTF-8 Plain Text
  78. Duration                                 : 1 h 34 min
  79. Bit rate                                 : 52 b/s
  80. Count of elements                        : 1096
  81. Stream size                              : 36.6 KiB (0%)
  82. Title                                    : SDH
  83. Language                                 : Vietnamese
  84. Default                                  : No
  85. Forced                                   : No
复制代码

夺魂 Hollow.2014.VIETNAMESE.1080p.NF.WEBRip.DDP2.0.x264-NTG 3.19GB-2.png 夺魂 Hollow.2014.VIETNAMESE.1080p.NF.WEBRip.DDP2.0.x264-NTG 3.19GB-3.png 夺魂 Hollow.2014.VIETNAMESE.1080p.NF.WEBRip.DDP2.0.x264-NTG 3.19GB-4.png






回复

使用道具 举报

懒得打字嘛,点击右侧快捷回复 【右侧内容,后台自定义】
您需要登录后才可以回帖 登录 | 立即加入

本版积分规则

Archiver|小黑屋| 蓝光电影网 |网站地图

Copyright © 2021 Comsenz Inc. Powered by 蓝光电影网

蓝光电影网

本站内容由用户自主分享和转载自互联网,转载目的在于传递更多信息,并不代表本网赞同其观点和对其真实性负责。

如有侵权、违反国家法律政策行为,请联系我们,我们会第一时间及时清除和处理!

举报反馈邮箱:[email protected]

快速回复 返回顶部 返回列表