找回密码

蓝光电影网

查看: 102|回复: 0

[剧情] 贝拉的奇幻花园/欢迎光临贝拉的奇幻花园 This.Beautiful.Fantastic.2016.1080p.WEB-DL.DD5.1.H264-FGT 3.17GB

[复制链接]
蓝光币
382
发表于 2020-1-23 13:55:37 | 显示全部楼层 |阅读模式
贝拉的奇异花园/接待光临贝拉的奇异花园 This.Beautiful.Fantastic.2016.1080p.WEB-DL.DD5.1.H264-FGT 3.17GB-1.png

译  名 贝拉的奇异花园 / 接待光临贝拉的奇异花园(台) / 美丽荒诞 / 竹苞松茂
片  名 This Beautiful Fantastic
年  代 2016
产  地 英国 / 美国
类  别 剧情 / 笑剧 / 恋爱
语  言 英语 / 盖尔语
上映日期 2016-10-20(斯洛文尼亚) / 2017-03-10(美国)
IMDb评分  6.9/10 from 7746 users
IMDb链接  https://www.imdb.com/title/tt4560008
豆瓣评分 7.4/10 from 6807 users
豆瓣链接 https://movie.douban.com/subject/26611806/
片  长 100分钟
导  演 西蒙·阿布德 Simon Aboud
编  剧 西蒙·阿布德 Simon Aboud
主  演 杰西卡·布朗·芬德利 Jessica Brown Findlay
       安德鲁·斯科特 Andrew Scott
       杰瑞米·艾文 Jeremy Irvine
       汤姆·威尔金森 Tom Wilkinson
       安娜·钱斯勒 Anna Chancellor
       谢拉·汉考克 Sheila Hancock
       夏洛特·阿斯特里 Charlotte Asprey
       伊莲恩·戴维斯 Eileen Davies
       洛拉·苏尔坦 Lola Sultan
       保罗·布莱克维尔 Paul Blackwell
       蒂娅·申顿 Tia Shenton
       米娅·法卡索夫斯佳 Mia Farkasovska
       克莱尔·阿什顿 Claire Ashton


标  签 文艺 | 温情 | 英国 | 奇异 | 英国电影 | 剧情 | 贝拉的奇异花园 | 恋爱

简  介  

  《接待光临贝拉的奇异花园》是一则心爱的现代童话,剧情围绕胡想成为童书作家的逼迫症女孩、与本性怪僻的园艺大师在伦敦相遇,为了缔造一座奇异花园而成长出一段动听的友谊。电影由拍摄广告与摄影著名的英国导演赛门艾布执导,让英式花园独有的花团锦簇与浪漫在大银幕上盛开。
  《接待光临贝拉的奇异花园》由气质出众的英国女星杰西卡·布朗·芬德利(Jessica Brown Findlay)饰演天天生活循序渐进、却有一堆眉角的怪女孩,英国金奖影帝汤姆威金森(Tom Wilkinson)则饰演本性机车的园艺大师。本片还找来了《新世纪福尔摩斯》(Sherlock)的大反派安德鲁史考特(Andrew Scott),饰演片中的暖男厨师,以及《战马》的帅哥杰瑞米尔文(Jeremy Irvine)饰演一位心爱的理工宅,集结几位英国气力派演员同台竞飙演技,精采可期!
  1. Video
  2. ID                                       : 1
  3. Format                                   : AVC
  4. Format/Info                              : Advanced Video Codec
  5. Format profile                           : [email protected]
  6. Format settings                          : CABAC / 5 Ref Frames
  7. Format settings, CABAC                   : Yes
  8. Format settings, Reference frames        : 5 frames
  9. Codec ID                                 : V_MPEG4/ISO/AVC
  10. Duration                                 : 1 h 31 min
  11. Bit rate                                 : 4 474 kb/s
  12. Width                                    : 1 920 pixels
  13. Height                                   : 804 pixels
  14. Display aspect ratio                     : 2.40:1
  15. Frame rate mode                          : Constant
  16. Frame rate                               : 24.000 FPS
  17. Color space                              : YUV
  18. Chroma subsampling                       : 4:2:0
  19. Bit depth                                : 8 bits
  20. Scan type                                : Progressive
  21. Bits/(Pixel*Frame)                       : 0.121
  22. Stream size                              : 2.86 GiB (90%)
  23. Title                                    : This.Beautiful.Fantastic.2016.1080p.WEB-DL.DD5.1.H264-FGT
  24. Language                                 : English
  25. Default                                  : Yes
  26. Forced                                   : No
  27. Color range                              : Limited
  28. Color primaries                          : BT.709
  29. Transfer characteristics                 : BT.709
  30. Matrix coefficients                      : BT.709

  31. Audio
  32. ID                                       : 2
  33. Format                                   : AC-3
  34. Format/Info                              : Audio Coding 3
  35. Commercial name                          : Dolby Digital
  36. Codec ID                                 : A_AC3
  37. Duration                                 : 1 h 31 min
  38. Bit rate mode                            : Constant
  39. Bit rate                                 : 384 kb/s
  40. Channel(s)                               : 6 channels
  41. Channel layout                           : L R C LFE Ls Rs
  42. Sampling rate                            : 48.0 kHz
  43. Frame rate                               : 31.250 FPS (1536 SPF)
  44. Bit depth                                : 16 bits
  45. Compression mode                         : Lossy
  46. Stream size                              : 251 MiB (8%)
  47. Language                                 : English
  48. Service kind                             : Complete Main
  49. Default                                  : Yes
  50. Forced                                   : No
复制代码

贝拉的奇异花园/接待光临贝拉的奇异花园 This.Beautiful.Fantastic.2016.1080p.WEB-DL.DD5.1.H264-FGT 3.17GB-2.png 贝拉的奇异花园/接待光临贝拉的奇异花园 This.Beautiful.Fantastic.2016.1080p.WEB-DL.DD5.1.H264-FGT 3.17GB-3.png 贝拉的奇异花园/接待光临贝拉的奇异花园 This.Beautiful.Fantastic.2016.1080p.WEB-DL.DD5.1.H264-FGT 3.17GB-4.png 贝拉的奇异花园/接待光临贝拉的奇异花园 This.Beautiful.Fantastic.2016.1080p.WEB-DL.DD5.1.H264-FGT 3.17GB-5.png 贝拉的奇异花园/接待光临贝拉的奇异花园 This.Beautiful.Fantastic.2016.1080p.WEB-DL.DD5.1.H264-FGT 3.17GB-6.png 贝拉的奇异花园/接待光临贝拉的奇异花园 This.Beautiful.Fantastic.2016.1080p.WEB-DL.DD5.1.H264-FGT 3.17GB-7.png






回复

使用道具 举报

懒得打字嘛,点击右侧快捷回复 【右侧内容,后台自定义】
您需要登录后才可以回帖 登录 | 立即加入

本版积分规则

Archiver|小黑屋| 蓝光电影网 |网站地图

Copyright © 2021 Comsenz Inc. Powered by 蓝光电影网

蓝光电影网

本站内容由用户自主分享和转载自互联网,转载目的在于传递更多信息,并不代表本网赞同其观点和对其真实性负责。

如有侵权、违反国家法律政策行为,请联系我们,我们会第一时间及时清除和处理!

举报反馈邮箱:[email protected]

快速回复 返回顶部 返回列表