找回密码

蓝光电影网

查看: 75|回复: 0

[剧情] 美丽的人/浮華煞星 The.Beautiful.Ones.2017.1080p.WEB-DL.DD5.1.H264-FGT 3.09GB

[复制链接]
蓝光币
426
发表于 2020-1-23 13:59:24 | 显示全部楼层 |阅读模式
美丽的人/浮華煞星 The.Beautiful.Ones.2017.1080p.WEB-DL.DD5.1.H264-FGT 3.09GB-1.png

译  名 美丽的人 / 浮華煞星(台) / 美人
片  名 The Beautiful Ones
年  代 2017
产  地 美国
类  别 剧情 / 悬疑 / 惊悚 / 犯罪
语  言 英语
上映日期 2014-12-05
IMDb评分  4.2/10 from 135 users
IMDb链接  https://www.imdb.com/title/tt3289804
豆瓣评分 0/10 from 0 users
豆瓣链接 https://movie.douban.com/subject/25807929/
片  长 94分钟
导  演 杰西·约翰逊 Jesse V. Johnson
编  剧 杰西·约翰逊 Jesse V. Johnson
主  演 罗斯·麦克科尔 Ross McCall
       布莱恩·泰 Brian Tee
       费尔南达·安德拉德 Fernanda Andrade
       朱丽叶·沃纳 Julie Warner
       埃德·劳特尔 Ed Lauter
       埃里克·罗伯茨 Eric Roberts
       Mo Anouti


标  签 [歐美] | RossMcCall

简  介  

  洛城第二大黑幫家属繼承人蓋博,喜歡六零年月的電影,對史提夫麥昆有著異常的迷戀,從事著差不多無聊的家属事業,過著差不多奢侈的江湖人生。儘管嘴上總是批評著陳腔濫調,還是老派地愛上了死對頭家属老迈的女兒伊娃,再加上老派的昔日兄弟变节,追求「經典」永遠是蓋博的唯一主旨。
  1. Video
  2. ID                                       : 1
  3. Format                                   : AVC
  4. Format/Info                              : Advanced Video Codec
  5. Format profile                           : [email protected]
  6. Format settings                          : CABAC / 4 Ref Frames
  7. Format settings, CABAC                   : Yes
  8. Format settings, Reference frames        : 4 frames
  9. Codec ID                                 : V_MPEG4/ISO/AVC
  10. Duration                                 : 1 h 30 min
  11. Bit rate                                 : 4 484 kb/s
  12. Width                                    : 1 920 pixels
  13. Height                                   : 1 080 pixels
  14. Display aspect ratio                     : 16:9
  15. Frame rate mode                          : Constant
  16. Frame rate                               : 23.976 (24000/1001) FPS
  17. Color space                              : YUV
  18. Chroma subsampling                       : 4:2:0
  19. Bit depth                                : 8 bits
  20. Scan type                                : Progressive
  21. Bits/(Pixel*Frame)                       : 0.090
  22. Stream size                              : 2.84 GiB (92%)
  23. Title                                    : The.Beautiful.Ones.2017.1080p.WEB-DL.DD5.1.H.264-FGT
  24. Default                                  : Yes
  25. Forced                                   : No
  26. Color range                              : Limited
  27. Color primaries                          : BT.709
  28. Transfer characteristics                 : BT.709
  29. Matrix coefficients                      : BT.709

  30. Audio
  31. ID                                       : 2
  32. Format                                   : AC-3
  33. Format/Info                              : Audio Coding 3
  34. Commercial name                          : Dolby Digital
  35. Codec ID                                 : A_AC3
  36. Duration                                 : 1 h 30 min
  37. Bit rate mode                            : Constant
  38. Bit rate                                 : 384 kb/s
  39. Channel(s)                               : 6 channels
  40. Channel layout                           : L R C LFE Ls Rs
  41. Sampling rate                            : 44.1 kHz
  42. Frame rate                               : 28.711 FPS (1536 SPF)
  43. Bit depth                                : 16 bits
  44. Compression mode                         : Lossy
  45. Stream size                              : 249 MiB (8%)
  46. Title                                    : The.Beautiful.Ones.2017.1080p.WEB-DL.DD5.1.H.264-FGT
  47. Language                                 : English
  48. Service kind                             : Complete Main
  49. Default                                  : Yes
  50. Forced                                   : No

  51. Text
  52. ID                                       : 3
  53. Format                                   : UTF-8
  54. Codec ID                                 : S_TEXT/UTF8
  55. Codec ID/Info                            : UTF-8 Plain Text
  56. Duration                                 : 1 h 29 min
  57. Bit rate                                 : 50 b/s
  58. Count of elements                        : 1047
  59. Stream size                              : 33.4 KiB (0%)
  60. Language                                 : English
  61. Default                                  : Yes
  62. Forced                                   : No

  63. Menu
  64. 00:00:00.000                             : en:Chapter 1
  65. 00:09:38.578                             : en:Chapter 2
  66. 00:18:35.114                             : en:Chapter 3
  67. 00:29:50.789                             : en:Chapter 4
  68. 00:40:46.444                             : en:Chapter 5
  69. 00:51:16.073                             : en:Chapter 6
  70. 01:01:13.670                             : en:Chapter 7
  71. 01:10:32.228                             : en:Chapter 8
  72. 01:19:57.793                             : en:Chapter 9
  73. 01:26:17.172                             : en:Chapter 10
复制代码

美丽的人/浮華煞星 The.Beautiful.Ones.2017.1080p.WEB-DL.DD5.1.H264-FGT 3.09GB-2.png 美丽的人/浮華煞星 The.Beautiful.Ones.2017.1080p.WEB-DL.DD5.1.H264-FGT 3.09GB-3.png 美丽的人/浮華煞星 The.Beautiful.Ones.2017.1080p.WEB-DL.DD5.1.H264-FGT 3.09GB-4.png






回复

使用道具 举报

懒得打字嘛,点击右侧快捷回复 【右侧内容,后台自定义】
您需要登录后才可以回帖 登录 | 立即加入

本版积分规则

Archiver|小黑屋| 蓝光电影网 |网站地图

Copyright © 2021 Comsenz Inc. Powered by 蓝光电影网

蓝光电影网

本站内容由用户自主分享和转载自互联网,转载目的在于传递更多信息,并不代表本网赞同其观点和对其真实性负责。

如有侵权、违反国家法律政策行为,请联系我们,我们会第一时间及时清除和处理!

举报反馈邮箱:[email protected]

快速回复 返回顶部 返回列表