找回密码

蓝光电影网

查看: 492|回复: 0

[喜剧] 江湖异人传 The.Great.McGinty.1940.1080p.BluRay.x264.DTS-FGT 7.42GB

[复制链接]
蓝光币
382
发表于 2020-1-23 14:43:22 | 显示全部楼层 |阅读模式
江湖异人传 The.Great.McGinty.1940.1080p.BluRay.x264.DTS-FGT 7.42GB-1.png

译  名 江湖异人传 / Biograhy of a Bum / Down Went McGinty / 巨大的麦金迪
片  名 The Great McGinty
年  代 1940
产  地 美国
类  别 笑剧
语  言 英语 / 俄语
上映日期 1940-08-23
IMDb评分  7.4/10 from 3160 users
IMDb链接  https://www.imdb.com/title/tt0032554
豆瓣评分 7.0/10 from 65 users
豆瓣链接 https://movie.douban.com/subject/1756213/
片  长 82 分钟
导  演 普莱斯顿·斯特奇斯 Preston Sturges
编  剧 普莱斯顿·斯特奇斯 Preston Sturges
主  演 布莱恩·唐莱维 Brian Donlevy


标  签 美国 | 笑剧 | Preston_Sturges | 犯罪 | 政治 | PrestonSturges | 美国电影 | 1940s

简  介  

  这部电影以闪回的形式报告了麦金迪因帮助选举做弊而获得政治团体的喜爱,甚至当上了著名无实的市长一职。这类政治生活需要他成婚组成家庭来服众,但是妻子凯瑟琳使他熟悉到他之前的行为是毛病的

获奖情况  

  第13届奥斯卡金像奖(1941)
  最好原创剧本 普莱斯顿·斯特奇斯
  1. Video
  2. ID                                       : 1
  3. Format                                   : AVC
  4. Format/Info                              : Advanced Video Codec
  5. Format profile                           : [email protected]
  6. Format settings                          : CABAC / 4 Ref Frames
  7. Format settings, CABAC                   : Yes
  8. Format settings, Reference frames        : 4 frames
  9. Codec ID                                 : V_MPEG4/ISO/AVC
  10. Duration                                 : 1 h 21 min
  11. Bit rate                                 : 11.5 Mb/s
  12. Width                                    : 1 480 pixels
  13. Height                                   : 1 080 pixels
  14. Display aspect ratio                     : 1.370
  15. Frame rate mode                          : Constant
  16. Frame rate                               : 23.976 (24000/1001) FPS
  17. Color space                              : YUV
  18. Chroma subsampling                       : 4:2:0
  19. Bit depth                                : 8 bits
  20. Scan type                                : Progressive
  21. Bits/(Pixel*Frame)                       : 0.300
  22. Stream size                              : 6.56 GiB (88%)
  23. Title                                    : The.Great.McGinty.1940.1080p.BluRay.x264.DTS-FGT
  24. Writing library                          : x264 core 148 r2748 97eaef2
  25. Encoding settings                        : cabac=1 / ref=4 / deblock=1:-2:-2 / analyse=0x3:0x113 / me=umh / subme=9 / psy=1 / psy_rd=1.00:0.15 / mixed_ref=1 / me_range=16 / chroma_me=1 / trellis=2 / 8x8dct=1 / cqm=0 / deadzone=21,11 / fast_pskip=1 / chroma_qp_offset=-3 / threads=72 / lookahead_threads=3 / sliced_threads=0 / nr=0 / decimate=1 / interlaced=0 / bluray_compat=0 / constrained_intra=0 / bframes=3 / b_pyramid=2 / b_adapt=1 / b_bias=0 / direct=3 / weightb=1 / open_gop=0 / weightp=2 / keyint=250 / keyint_min=25 / scenecut=40 / intra_refresh=0 / rc_lookahead=50 / rc=2pass / mbtree=1 / bitrate=11500 / ratetol=1.0 / qcomp=0.60 / qpmin=0 / qpmax=69 / qpstep=4 / cplxblur=20.0 / qblur=0.5 / vbv_maxrate=31250 / vbv_bufsize=31250 / nal_hrd=none / filler=0 / ip_ratio=1.40 / aq=1:1.00
  26. Language                                 : English
  27. Default                                  : Yes
  28. Forced                                   : No

  29. Audio
  30. ID                                       : 2
  31. Format                                   : DTS
  32. Format/Info                              : Digital Theater Systems
  33. Codec ID                                 : A_DTS
  34. Duration                                 : 1 h 21 min
  35. Bit rate mode                            : Constant
  36. Bit rate                                 : 1 509 kb/s
  37. Channel(s)                               : 2 channels
  38. Channel layout                           : L R
  39. Sampling rate                            : 48.0 kHz
  40. Frame rate                               : 93.750 FPS (512 SPF)
  41. Bit depth                                : 16 bits
  42. Compression mode                         : Lossy
  43. Stream size                              : 881 MiB (12%)
  44. Title                                    : The.Great.McGinty.1940.1080p.BluRay.x264.DTS-FGT
  45. Language                                 : English
  46. Default                                  : Yes
  47. Forced                                   : No

  48. Text
  49. ID                                       : 3
  50. Format                                   : UTF-8
  51. Codec ID                                 : S_TEXT/UTF8
  52. Codec ID/Info                            : UTF-8 Plain Text
  53. Duration                                 : 1 h 18 min
  54. Bit rate                                 : 77 b/s
  55. Count of elements                        : 1400
  56. Stream size                              : 45.0 KiB (0%)
  57. Language                                 : English
  58. Default                                  : Yes
  59. Forced                                   : No

  60. Menu
  61. 00:00:00.000                             : en:Chapter 1
  62. 00:06:45.905                             : en:Chapter 2
  63. 00:16:33.993                             : en:Chapter 3
  64. 00:26:21.371                             : en:Chapter 4
  65. 00:32:16.726                             : en:Chapter 5
  66. 00:45:24.430                             : en:Chapter 6
  67. 00:54:53.749                             : en:Chapter 7
  68. 01:08:23.308                             : en:Chapter 8
复制代码

江湖异人传 The.Great.McGinty.1940.1080p.BluRay.x264.DTS-FGT 7.42GB-2.png 江湖异人传 The.Great.McGinty.1940.1080p.BluRay.x264.DTS-FGT 7.42GB-3.png 江湖异人传 The.Great.McGinty.1940.1080p.BluRay.x264.DTS-FGT 7.42GB-4.png






回复

使用道具 举报

懒得打字嘛,点击右侧快捷回复 【右侧内容,后台自定义】
您需要登录后才可以回帖 登录 | 立即加入

本版积分规则

Archiver|小黑屋| 蓝光电影网 |网站地图

Copyright © 2021 Comsenz Inc. Powered by 蓝光电影网

蓝光电影网

本站内容由用户自主分享和转载自互联网,转载目的在于传递更多信息,并不代表本网赞同其观点和对其真实性负责。

如有侵权、违反国家法律政策行为,请联系我们,我们会第一时间及时清除和处理!

举报反馈邮箱:[email protected]

快速回复 返回顶部 返回列表