找回密码

蓝光电影网

查看: 243|回复: 0

[剧情] 中途客栈 The.Halfway.House.1944.1080p.BluRay.REMUX.AVC.LPCM.2.0-FGT 24.20GB

[复制链接]
蓝光币
382
发表于 2020-1-23 22:28:53 | 显示全部楼层 |阅读模式
中途堆栈 The.Halfway.House.1944.1080p.BluRay.REMUX.AVC.LPCM.2.0-FGT 24.20GB-1.png

译  名 中途堆栈
片  名 The Halfway House
年  代 1944
产  地 英国
类  别 剧情 / 悬疑 / 奇异
语  言 英语
上映日期 1944
IMDb评分  6.9/10 from 530 users
IMDb链接  https://www.imdb.com/title/tt0035962
豆瓣评分 0/10 from 0 users
豆瓣链接 https://movie.douban.com/subject/4132347/
片  长 95 分钟
导  演 Basil Dearden / Alberto Cavalcanti
编  剧 Denis Ogden / Angus MacPhail / Diana Morgan / Roland Pertwee / T.E.B. Clarke

标  签 英国电影 | 奇异 | +ut

简  介  

  A group of travellers, all with something to hide in their past, take shelter from a storm in an old inn. The inn-keeper seems a little mysterious...
  1. Video
  2. ID                                       : 1
  3. Format                                   : AVC
  4. Format/Info                              : Advanced Video Codec
  5. Format profile                           : [email protected]
  6. Format settings                          : CABAC / 4 Ref Frames
  7. Format settings, CABAC                   : Yes
  8. Format settings, Reference frames        : 4 frames
  9. Codec ID                                 : V_MPEG4/ISO/AVC
  10. Duration                                 : 1 h 35 min
  11. Bit rate mode                            : Variable
  12. Bit rate                                 : 33.9 Mb/s
  13. Maximum bit rate                         : 38.0 Mb/s
  14. Width                                    : 1 920 pixels
  15. Height                                   : 1 080 pixels
  16. Display aspect ratio                     : 16:9
  17. Frame rate mode                          : Constant
  18. Frame rate                               : 24.000 FPS
  19. Color space                              : YUV
  20. Chroma subsampling                       : 4:2:0
  21. Bit depth                                : 8 bits
  22. Scan type                                : Progressive
  23. Bits/(Pixel*Frame)                       : 0.681
  24. Stream size                              : 22.6 GiB (94%)
  25. Title                                    : The.Halfway.House.1944.1080p.BluRay.REMUX.AVC.LPCM.2.0-FGT
  26. Language                                 : English
  27. Default                                  : No
  28. Forced                                   : No

  29. Audio
  30. ID                                       : 2
  31. Format                                   : PCM
  32. Format settings                          : Little / Signed
  33. Codec ID                                 : A_PCM/INT/LIT
  34. Duration                                 : 1 h 35 min
  35. Bit rate mode                            : Constant
  36. Bit rate                                 : 2 304 kb/s
  37. Channel(s)                               : 2 channels
  38. Sampling rate                            : 48.0 kHz
  39. Frame rate                               : 30.000 FPS (1600 SPF)
  40. Bit depth                                : 24 bits
  41. Stream size                              : 1.54 GiB (6%)
  42. Title                                    : The.Halfway.House.1944.1080p.BluRay.REMUX.AVC.LPCM.2.0-FGT
  43. Language                                 : English
  44. Default                                  : Yes
  45. Forced                                   : No

  46. Text
  47. ID                                       : 3
  48. Format                                   : PGS
  49. Muxing mode                              : zlib
  50. Codec ID                                 : S_HDMV/PGS
  51. Codec ID/Info                            : Picture based subtitle format used on BDs/HD-DVDs
  52. Duration                                 : 1 h 33 min
  53. Bit rate                                 : 51.8 kb/s
  54. Count of elements                        : 3556
  55. Stream size                              : 34.7 MiB (0%)
  56. Title                                    : English-PGS
  57. Language                                 : English
  58. Default                                  : Yes
  59. Forced                                   : No

  60. Menu
  61. 00:00:00.000                             : en:Chapter 01
  62. 00:06:53.708                             : en:Chapter 02
  63. 00:14:32.875                             : en:Chapter 03
  64. 00:20:29.791                             : en:Chapter 04
  65. 00:28:44.375                             : en:Chapter 05
  66. 00:37:00.125                             : en:Chapter 06
  67. 00:44:44.708                             : en:Chapter 07
  68. 00:55:01.291                             : en:Chapter 08
  69. 01:00:27.875                             : en:Chapter 09
  70. 01:09:46.666                             : en:Chapter 10
  71. 01:16:30.125                             : en:Chapter 11
  72. 01:24:05.875                             : en:Chapter 12
复制代码

中途堆栈 The.Halfway.House.1944.1080p.BluRay.REMUX.AVC.LPCM.2.0-FGT 24.20GB-2.png 中途堆栈 The.Halfway.House.1944.1080p.BluRay.REMUX.AVC.LPCM.2.0-FGT 24.20GB-3.png 中途堆栈 The.Halfway.House.1944.1080p.BluRay.REMUX.AVC.LPCM.2.0-FGT 24.20GB-4.png






回复

使用道具 举报

懒得打字嘛,点击右侧快捷回复 【右侧内容,后台自定义】
您需要登录后才可以回帖 登录 | 立即加入

本版积分规则

Archiver|小黑屋| 蓝光电影网 |网站地图

Copyright © 2021 Comsenz Inc. Powered by 蓝光电影网

蓝光电影网

本站内容由用户自主分享和转载自互联网,转载目的在于传递更多信息,并不代表本网赞同其观点和对其真实性负责。

如有侵权、违反国家法律政策行为,请联系我们,我们会第一时间及时清除和处理!

举报反馈邮箱:[email protected]

快速回复 返回顶部 返回列表