找回密码

蓝光电影网

查看: 399|回复: 0

[喜剧] 江湖异人传 The.Great.McGinty.1940.1080p.BluRay.REMUX.AVC.DTS-HD.MA.2.0-FGT 21.42GB

[复制链接]
蓝光币
426
发表于 2020-1-23 22:29:50 | 显示全部楼层 |阅读模式
江湖异人传 The.Great.McGinty.1940.1080p.BluRay.REMUX.AVC.DTS-HD.MA.2.0-FGT 21.42GB-1.png

译  名 江湖异人传 / Biograhy of a Bum / Down Went McGinty / 巨大的麦金迪
片  名 The Great McGinty
年  代 1940
产  地 美国
类  别 笑剧
语  言 英语 / 俄语
上映日期 1940-08-23
IMDb评分  7.4/10 from 3160 users
IMDb链接  https://www.imdb.com/title/tt0032554
豆瓣评分 7.0/10 from 65 users
豆瓣链接 https://movie.douban.com/subject/1756213/
片  长 82 分钟
导  演 普莱斯顿·斯特奇斯 Preston Sturges
编  剧 普莱斯顿·斯特奇斯 Preston Sturges
主  演 布莱恩·唐莱维 Brian Donlevy


标  签 美国 | 笑剧 | Preston_Sturges | 犯罪 | 政治 | PrestonSturges | 美国电影 | 1940s

简  介  

  这部电影以闪回的形式报告了麦金迪因帮助选举做弊而获得政治团体的喜爱,甚至当上了著名无实的市长一职。这类政治生活需要他成婚组成家庭来服众,但是妻子凯瑟琳使他熟悉到他之前的行为是毛病的

获奖情况  

  第13届奥斯卡金像奖(1941)
  最好原创剧本 普莱斯顿·斯特奇斯
  1. Video
  2. ID                                       : 1
  3. Format                                   : AVC
  4. Format/Info                              : Advanced Video Codec
  5. Format profile                           : [email protected]
  6. Format settings                          : CABAC / 4 Ref Frames
  7. Format settings, CABAC                   : Yes
  8. Format settings, Reference frames        : 4 frames
  9. Codec ID                                 : V_MPEG4/ISO/AVC
  10. Duration                                 : 1 h 21 min
  11. Bit rate mode                            : Variable
  12. Bit rate                                 : 35.8 Mb/s
  13. Maximum bit rate                         : 38.0 Mb/s
  14. Width                                    : 1 920 pixels
  15. Height                                   : 1 080 pixels
  16. Display aspect ratio                     : 16:9
  17. Frame rate mode                          : Constant
  18. Frame rate                               : 23.976 (24000/1001) FPS
  19. Color space                              : YUV
  20. Chroma subsampling                       : 4:2:0
  21. Bit depth                                : 8 bits
  22. Scan type                                : Progressive
  23. Bits/(Pixel*Frame)                       : 0.720
  24. Stream size                              : 20.4 GiB (95%)
  25. Title                                    : The.Great.McGinty.1940.1080p.BluRay.REMUX.AVC.DTS-HD.MA.2.0-FGT
  26. Language                                 : English
  27. Default                                  : No
  28. Forced                                   : No

  29. Audio #1
  30. ID                                       : 2
  31. Format                                   : DTS XLL
  32. Format/Info                              : Digital Theater Systems
  33. Commercial name                          : DTS-HD Master Audio
  34. Codec ID                                 : A_DTS
  35. Duration                                 : 1 h 21 min
  36. Bit rate mode                            : Variable
  37. Bit rate                                 : 1 557 kb/s
  38. Channel(s)                               : 2 channels
  39. Channel layout                           : L R
  40. Sampling rate                            : 48.0 kHz
  41. Frame rate                               : 93.750 FPS (512 SPF)
  42. Bit depth                                : 16 bits
  43. Compression mode                         : Lossless
  44. Stream size                              : 909 MiB (4%)
  45. Title                                    : The.Great.McGinty.1940.1080p.BluRay.REMUX.AVC.DTS-HD.MA.2.0-FGT
  46. Language                                 : English
  47. Default                                  : Yes
  48. Forced                                   : No

  49. Audio #2
  50. ID                                       : 3
  51. Format                                   : AC-3
  52. Format/Info                              : Audio Coding 3
  53. Commercial name                          : Dolby Digital
  54. Codec ID                                 : A_AC3
  55. Duration                                 : 1 h 21 min
  56. Bit rate mode                            : Constant
  57. Bit rate                                 : 192 kb/s
  58. Channel(s)                               : 2 channels
  59. Channel layout                           : L R
  60. Sampling rate                            : 48.0 kHz
  61. Frame rate                               : 31.250 FPS (1536 SPF)
  62. Bit depth                                : 16 bits
  63. Compression mode                         : Lossy
  64. Stream size                              : 112 MiB (1%)
  65. Title                                    : The.Great.McGinty.1940.1080p.BluRay.REMUX.AVC.DTS-HD.MA.2.0-FGT
  66. Language                                 : English
  67. Service kind                             : Complete Main
  68. Default                                  : No
  69. Forced                                   : No

  70. Text
  71. ID                                       : 4
  72. Format                                   : PGS
  73. Muxing mode                              : zlib
  74. Codec ID                                 : S_HDMV/PGS
  75. Codec ID/Info                            : Picture based subtitle format used on BDs/HD-DVDs
  76. Duration                                 : 1 h 18 min
  77. Bit rate                                 : 35.3 kb/s
  78. Count of elements                        : 2303
  79. Stream size                              : 20.0 MiB (0%)
  80. Title                                    : English-PGS
  81. Language                                 : English
  82. Default                                  : Yes
  83. Forced                                   : No

  84. Menu
  85. 00:00:00.000                             : en:Chapter 00
  86. 00:06:34.894                             : en:Chapter 01
  87. 00:16:22.982                             : en:Chapter 02
  88. 00:26:10.360                             : en:Chapter 03
  89. 00:32:05.715                             : en:Chapter 04
  90. 00:45:13.419                             : en:Chapter 05
  91. 00:54:42.737                             : en:Chapter 06
  92. 01:08:12.296                             : en:Chapter 07
复制代码

江湖异人传 The.Great.McGinty.1940.1080p.BluRay.REMUX.AVC.DTS-HD.MA.2.0-FGT 21.42GB-1.png 江湖异人传 The.Great.McGinty.1940.1080p.BluRay.REMUX.AVC.DTS-HD.MA.2.0-FGT 21.42GB-3.png 江湖异人传 The.Great.McGinty.1940.1080p.BluRay.REMUX.AVC.DTS-HD.MA.2.0-FGT 21.42GB-4.png






回复

使用道具 举报

懒得打字嘛,点击右侧快捷回复 【右侧内容,后台自定义】
您需要登录后才可以回帖 登录 | 立即加入

本版积分规则

Archiver|小黑屋| 蓝光电影网 |网站地图

Copyright © 2021 Comsenz Inc. Powered by 蓝光电影网

蓝光电影网

本站内容由用户自主分享和转载自互联网,转载目的在于传递更多信息,并不代表本网赞同其观点和对其真实性负责。

如有侵权、违反国家法律政策行为,请联系我们,我们会第一时间及时清除和处理!

举报反馈邮箱:[email protected]

快速回复 返回顶部 返回列表