找回密码

蓝光电影网

查看: 326|回复: 1

[剧情] 天堂/天堂镇的夏天 Paradise.1991.1080p.BluRay.REMUX.AVC.DTS-HD.MA.2.0-FGT 17.40GB

[复制链接]
蓝光币
382
发表于 2020-1-23 22:32:15 | 显示全部楼层 |阅读模式
天堂/天堂镇的炎天 Paradise.1991.1080p.BluRay.REMUX.AVC.DTS-HD.MA.2.0-FGT 17.40GB-1.png

译  名 天堂 / 天堂镇的炎天
片  名 Paradise
年  代 1991
产  地 美国
类  别 剧情
语  言 英语
上映日期 1991-09-12
IMDb评分  6.7/10 from 2586 users
IMDb链接  https://www.imdb.com/title/tt0102631
豆瓣评分 0/10 from 0 users
豆瓣链接 https://movie.douban.com/subject/2138899/
片  长 111 分钟
导  演 Mary Agnes Donoghue
编  剧 Mary Agnes Donoghue
主  演 Melanie Griffith
       Don Johnson
       Elijah Wood
       Thora Birch
       Eve Gordon
       Greg Travis


标  签 儿童 | 美国 | 美国电影 | 剧情 | 90s | 1991 | 家庭

简  介  

  暑假到了,10岁的威拉德·扬(伊利亚·伍德饰)被妈妈送到一个叫天堂的沿海小镇。他将在他母亲最好的朋友莉莉·里德家里度过暑假。到来的第一天,威拉德碰到了里德邻人家9岁的小女孩比莉·派克(索拉·波奇饰)。虽然比莉是个喜好惹是生非的假小子,与威拉德灵巧听话的性情截然不同,可是他们还是成为了好朋友。他们一路划船、泅水、观察小动物,还溜进仓房窃看比莉的姐姐和她男朋友亲热。在里德家,威拉德很快发现,莉莉与她丈夫本·里德的关系似乎有很大题目——两人几近没有什么相同,也难见笑容。一个偶然的机遇,威拉德晓得了两人关系出现题目标缘由,因而尽力帮助两人从悲剧中走出来。威拉德是一个聪明、讨人喜好的孩子,很快便别离赢得了莉莉和本的爱好。接下来他会在适当的机会,勾起二人对往昔美好日子的回忆。但是,威拉德也有着自己解不开的心结——他的爸爸已经很久没有回家了。他妈妈告诉他说,爸爸一向在履行海上使命所以不能回家,但威拉德听到谎言说他爸爸扔下他和妈妈与此外女人跑了。威拉德不愿意相信这是真的,也不敢去面临这样的究竟......在这个静谧小镇的炎天,威拉德能否帮助里德佳耦走出阴霾,又能否解开自己的心结呢?
  1. Video
  2. ID                                       : 1
  3. Format                                   : AVC
  4. Format/Info                              : Advanced Video Codec
  5. Format profile                           : [email protected]
  6. Format settings                          : CABAC / 4 Ref Frames
  7. Format settings, CABAC                   : Yes
  8. Format settings, Reference frames        : 4 frames
  9. Codec ID                                 : V_MPEG4/ISO/AVC
  10. Duration                                 : 1 h 51 min
  11. Bit rate mode                            : Variable
  12. Bit rate                                 : 20.6 Mb/s
  13. Maximum bit rate                         : 35.0 Mb/s
  14. Width                                    : 1 920 pixels
  15. Height                                   : 1 080 pixels
  16. Display aspect ratio                     : 16:9
  17. Frame rate mode                          : Constant
  18. Frame rate                               : 23.976 (24000/1001) FPS
  19. Color space                              : YUV
  20. Chroma subsampling                       : 4:2:0
  21. Bit depth                                : 8 bits
  22. Scan type                                : Progressive
  23. Bits/(Pixel*Frame)                       : 0.415
  24. Stream size                              : 16.0 GiB (92%)
  25. Title                                    : Paradise.1991.1080p.BluRay.REMUX.AVC.DTS-HD.MA.2.0-FGT
  26. Language                                 : English
  27. Default                                  : No
  28. Forced                                   : No

  29. Audio #1
  30. ID                                       : 2
  31. Format                                   : DTS XLL
  32. Format/Info                              : Digital Theater Systems
  33. Commercial name                          : DTS-HD Master Audio
  34. Codec ID                                 : A_DTS
  35. Duration                                 : 1 h 51 min
  36. Bit rate mode                            : Variable
  37. Bit rate                                 : 1 557 kb/s
  38. Channel(s)                               : 2 channels
  39. Channel layout                           : L R
  40. Sampling rate                            : 48.0 kHz
  41. Frame rate                               : 93.750 FPS (512 SPF)
  42. Bit depth                                : 16 bits
  43. Compression mode                         : Lossless
  44. Stream size                              : 1.21 GiB (7%)
  45. Title                                    : Paradise.1991.1080p.BluRay.REMUX.AVC.DTS-HD.MA.2.0-FGT
  46. Language                                 : English
  47. Default                                  : Yes
  48. Forced                                   : No

  49. Audio #2
  50. ID                                       : 3
  51. Format                                   : AC-3
  52. Format/Info                              : Audio Coding 3
  53. Commercial name                          : Dolby Digital
  54. Codec ID                                 : A_AC3
  55. Duration                                 : 1 h 51 min
  56. Bit rate mode                            : Constant
  57. Bit rate                                 : 192 kb/s
  58. Channel(s)                               : 2 channels
  59. Channel layout                           : L R
  60. Sampling rate                            : 48.0 kHz
  61. Frame rate                               : 31.250 FPS (1536 SPF)
  62. Bit depth                                : 16 bits
  63. Compression mode                         : Lossy
  64. Stream size                              : 153 MiB (1%)
  65. Title                                    : Paradise.1991.1080p.BluRay.REMUX.AVC.DTS-HD.MA.2.0-FGT
  66. Language                                 : English
  67. Service kind                             : Complete Main
  68. Default                                  : No
  69. Forced                                   : No

  70. Text
  71. ID                                       : 4
  72. Format                                   : PGS
  73. Muxing mode                              : zlib
  74. Codec ID                                 : S_HDMV/PGS
  75. Codec ID/Info                            : Picture based subtitle format used on BDs/HD-DVDs
  76. Duration                                 : 1 h 46 min
  77. Bit rate                                 : 21.7 kb/s
  78. Count of elements                        : 1820
  79. Stream size                              : 16.6 MiB (0%)
  80. Title                                    : English-PGS
  81. Language                                 : English
  82. Default                                  : Yes
  83. Forced                                   : No

  84. Menu
  85. 00:00:00.000                             : en:Chapter 00
  86. 00:09:11.384                             : en:Chapter 01
  87. 00:23:25.320                             : en:Chapter 02
  88. 00:38:33.060                             : en:Chapter 03
  89. 00:56:55.286                             : en:Chapter 04
  90. 01:12:22.254                             : en:Chapter 05
  91. 01:29:23.775                             : en:Chapter 06
  92. 01:41:52.815                             : en:Chapter 07
复制代码

天堂/天堂镇的炎天 Paradise.1991.1080p.BluRay.REMUX.AVC.DTS-HD.MA.2.0-FGT 17.40GB-2.png 天堂/天堂镇的炎天 Paradise.1991.1080p.BluRay.REMUX.AVC.DTS-HD.MA.2.0-FGT 17.40GB-3.png 天堂/天堂镇的炎天 Paradise.1991.1080p.BluRay.REMUX.AVC.DTS-HD.MA.2.0-FGT 17.40GB-4.png






回复

使用道具 举报

蓝光币
2566
发表于 2020-1-24 08:40:41 | 显示全部楼层
楼主发贴辛苦了,谢谢楼主分享!我觉得蓝光电影网是注册对了!
回复 支持 反对

使用道具 举报

懒得打字嘛,点击右侧快捷回复 【右侧内容,后台自定义】
您需要登录后才可以回帖 登录 | 立即加入

本版积分规则

Archiver|小黑屋| 蓝光电影网 |网站地图

Copyright © 2021 Comsenz Inc. Powered by 蓝光电影网

蓝光电影网

本站内容由用户自主分享和转载自互联网,转载目的在于传递更多信息,并不代表本网赞同其观点和对其真实性负责。

如有侵权、违反国家法律政策行为,请联系我们,我们会第一时间及时清除和处理!

举报反馈邮箱:[email protected]

快速回复 返回顶部 返回列表