找回密码

蓝光电影网

查看: 228|回复: 3

[剧情] 失认症/感知不能 Agnosia.2010.1080p.BluRay.x264-NORDiCHD 7.94GB

[复制链接]
蓝光币
511
发表于 2020-4-24 12:12:23 | 显示全部楼层 |阅读模式
失认症/感知不能 Agnosia.2010.1080p.BluRay.x264-NORDiCHD 7.94GB-1.png

译  名 失认症 / 感知不能
片  名 Agnosia
年  代 2010
产  地 西班牙
类  别 剧情 / 惊悚
语  言 西班牙语
上映日期 2010-11-05
IMDb评分  5.4/10 from 1358 users
IMDb链接  https://www.imdb.com/title/tt1519245
豆瓣评分 5.4/10 from 275 users
豆瓣链接 https://movie.douban.com/subject/4067168/
导  演 Eugenio Mira
编  剧 Antonio Trashorras
主  演 Eduardo Noriega
       Barbara Goenaga
       Félix Gómez


标  签 西班牙 | 惊悚 | 西班牙电影 | 剧情 | 2010 | EduardoNoriega | 恋爱 | 可骇

简  介  

  19世纪末的西班牙巴塞罗那,阿图尔·普拉特(塞尔吉·马特乌 Sergi Mateu 饰)经营着慈父千里镜行,他奇迹有成,家境敷裕,可是爱女乔安娜(芭芭拉·格娜加 Bárbara Goenaga 饰)因诞生时得了脑炎,是以自幼罹得了一种极为罕有的病症——失认症(agnosia)。这类病症让她在身材各个感官都健全的情况下,没法顺遂地认知方圆的人与物。
  阿图尔久长以来都在尽力寻觅治好女儿的法子,而他所把握的贸易机密也都成为同业甚至合作伙伴急欲获得的珍宝。父亲临终之际,将贸易机密拜托给了乔安娜。与此同时,恋爱与引诱接连来临,而在这份看似浪漫的追求背后,自擅自利的人们用无情卑劣的手段危险着无助的乔安娜……
  1. Video
  2. ID                                       : 1
  3. Format                                   : AVC
  4. Format/Info                              : Advanced Video Codec
  5. Format profile                           : [email protected]
  6. Format settings                          : CABAC / 5 Ref Frames
  7. Format settings, CABAC                   : Yes
  8. Format settings, Reference frames        : 5 frames
  9. Codec ID                                 : V_MPEG4/ISO/AVC
  10. Duration                                 : 1 h 49 min
  11. Bit rate                                 : 8 853 kb/s
  12. Width                                    : 1 920 pixels
  13. Height                                   : 816 pixels
  14. Display aspect ratio                     : 2.35:1
  15. Frame rate mode                          : Constant
  16. Frame rate                               : 24.000 FPS
  17. Color space                              : YUV
  18. Chroma subsampling                       : 4:2:0
  19. Bit depth                                : 8 bits
  20. Scan type                                : Progressive
  21. Bits/(Pixel*Frame)                       : 0.235
  22. Stream size                              : 6.78 GiB (85%)
  23. Writing library                          : x264 core 115 r1995 c1e60b9
  24. Encoding settings                        : cabac=1 / ref=5 / deblock=1:0:0 / analyse=0x3:0x133 / me=umh / subme=7 / psy=1 / psy_rd=1.00:0.00 / mixed_ref=0 / me_range=16 / chroma_me=1 / trellis=1 / 8x8dct=1 / cqm=0 / deadzone=21,11 / fast_pskip=0 / chroma_qp_offset=-2 / threads=12 / sliced_threads=0 / nr=0 / decimate=1 / interlaced=0 / bluray_compat=0 / constrained_intra=0 / bframes=5 / b_pyramid=2 / b_adapt=1 / b_bias=0 / direct=1 / weightb=1 / open_gop=0 / weightp=2 / keyint=250 / keyint_min=24 / scenecut=40 / intra_refresh=0 / rc_lookahead=40 / rc=2pass / mbtree=1 / bitrate=8853 / ratetol=1.0 / qcomp=0.60 / qpmin=10 / qpmax=51 / qpstep=4 / cplxblur=20.0 / qblur=0.5 / ip_ratio=1.40 / aq=1:1.00
  25. Language                                 : English
  26. Default                                  : Yes
  27. Forced                                   : No

  28. Audio
  29. ID                                       : 2
  30. Format                                   : DTS
  31. Format/Info                              : Digital Theater Systems
  32. Codec ID                                 : A_DTS
  33. Duration                                 : 1 h 49 min
  34. Bit rate mode                            : Constant
  35. Bit rate                                 : 1 509 kb/s
  36. Channel(s)                               : 6 channels
  37. Channel layout                           : C L R Ls Rs LFE
  38. Sampling rate                            : 48.0 kHz
  39. Frame rate                               : 93.750 FPS (512 SPF)
  40. Bit depth                                : 24 bits
  41. Compression mode                         : Lossy
  42. Stream size                              : 1.16 GiB (15%)
  43. Language                                 : Spanish
  44. Default                                  : Yes
  45. Forced                                   : No

  46. Text #1
  47. ID                                       : 3
  48. Format                                   : UTF-8
  49. Codec ID                                 : S_TEXT/UTF8
  50. Codec ID/Info                            : UTF-8 Plain Text
  51. Duration                                 : 1 h 41 min
  52. Bit rate                                 : 32 b/s
  53. Count of elements                        : 868
  54. Stream size                              : 24.3 KiB (0%)
  55. Language                                 : English
  56. Default                                  : Yes
  57. Forced                                   : No

  58. Text #2
  59. ID                                       : 4
  60. Format                                   : UTF-8
  61. Codec ID                                 : S_TEXT/UTF8
  62. Codec ID/Info                            : UTF-8 Plain Text
  63. Duration                                 : 1 h 48 min
  64. Bit rate                                 : 29 b/s
  65. Count of elements                        : 675
  66. Stream size                              : 23.8 KiB (0%)
  67. Language                                 : Danish
  68. Default                                  : No
  69. Forced                                   : No

  70. Text #3
  71. ID                                       : 5
  72. Format                                   : UTF-8
  73. Codec ID                                 : S_TEXT/UTF8
  74. Codec ID/Info                            : UTF-8 Plain Text
  75. Duration                                 : 1 h 48 min
  76. Bit rate                                 : 29 b/s
  77. Count of elements                        : 675
  78. Stream size                              : 23.2 KiB (0%)
  79. Language                                 : Finnish
  80. Default                                  : No
  81. Forced                                   : No

  82. Text #4
  83. ID                                       : 6
  84. Format                                   : UTF-8
  85. Codec ID                                 : S_TEXT/UTF8
  86. Codec ID/Info                            : UTF-8 Plain Text
  87. Duration                                 : 1 h 48 min
  88. Bit rate                                 : 28 b/s
  89. Count of elements                        : 676
  90. Stream size                              : 22.8 KiB (0%)
  91. Language                                 : Norwegian
  92. Default                                  : No
  93. Forced                                   : No

  94. Text #5
  95. ID                                       : 7
  96. Format                                   : UTF-8
  97. Codec ID                                 : S_TEXT/UTF8
  98. Codec ID/Info                            : UTF-8 Plain Text
  99. Duration                                 : 1 h 48 min
  100. Bit rate                                 : 28 b/s
  101. Count of elements                        : 675
  102. Stream size                              : 22.6 KiB (0%)
  103. Language                                 : Swedish
  104. Default                                  : No
  105. Forced                                   : No

  106. Menu
  107. 00:00:00.000                             : en:00:00:00.000
  108. 00:15:04.375                             : en:00:15:04.375
  109. 00:29:36.667                             : en:00:29:36.667
  110. 00:44:29.833                             : en:00:44:29.833
  111. 00:59:29.792                             : en:00:59:29.792
  112. 01:16:03.083                             : en:01:16:03.083
  113. 01:32:13.708                             : en:01:32:13.708
  114. 01:44:00.208                             : en:01:44:00.208
复制代码

失认症/感知不能 Agnosia.2010.1080p.BluRay.x264-NORDiCHD 7.94GB-2.png 失认症/感知不能 Agnosia.2010.1080p.BluRay.x264-NORDiCHD 7.94GB-3.png 失认症/感知不能 Agnosia.2010.1080p.BluRay.x264-NORDiCHD 7.94GB-4.png






回复

使用道具 举报

蓝光币
376
发表于 2020-4-24 20:38:36 | 显示全部楼层

我看不错噢 谢谢楼主!蓝光电影网越来越好!
回复 支持 反对

使用道具 举报

懒得打字嘛,点击右侧快捷回复 【右侧内容,后台自定义】
您需要登录后才可以回帖 登录 | 立即加入

本版积分规则

Archiver|小黑屋| 蓝光电影网 |网站地图

Copyright © 2021 Comsenz Inc. Powered by 蓝光电影网

蓝光电影网

本站内容由用户自主分享和转载自互联网,转载目的在于传递更多信息,并不代表本网赞同其观点和对其真实性负责。

如有侵权、违反国家法律政策行为,请联系我们,我们会第一时间及时清除和处理!

举报反馈邮箱:[email protected]

快速回复 返回顶部 返回列表