找回密码

蓝光电影网

查看: 312|回复: 3

[剧情] 巴士惊魂 Last.Stop.174.2008.1080p.BluRay.x264-HD4U 7.92GB

[复制链接]
蓝光币
519
发表于 2020-4-24 12:16:05 | 显示全部楼层 |阅读模式
巴士惊魂 Last.Stop.174.2008.1080p.BluRay.x264-HD4U 7.92GB-1.png

译  名 巴士惊魂 / Last Stop 174 / 最初一站
片  名 última Parada 174
年  代 2008
产  地 巴西
类  别 剧情 / 行动 / 惊悚 / 犯罪
语  言 葡萄牙语
上映日期 2008-10-24
IMDb评分  7.1/10 from 4708 users
IMDb链接  https://www.imdb.com/title/tt1280567
豆瓣评分 7.4/10 from 1167 users
豆瓣链接 https://movie.douban.com/subject/3206298/
片  长 104 分钟
导  演 Bruno Barreto
编  剧 Bráulio Mantovani
主  演 Michel de Souza
       Marcello Melo Junior
       Gabriela Luiz
       Chris Vianna
       Michel Gomes


标  签 巴西 | 犯罪 | 巴西电影 | 剧情 | 人性 | 2008 | 布鲁诺·巴雷托 | 拉美

简  介  

  故事发生在犯罪之都里约热内卢,桑德罗(Michel Gomes 饰)本是一个纯真欢畅的孩子,但一切美好的一切都在他亲眼目击母亲被强盗杀死后荡然无存了。在心里庞大的疾苦和愤慨眼前,桑德罗丢失了偏向,他起头安于现状,整天和当地的一些犯罪团伙混在一路。在同伴的勾引下,桑德罗不但自己起头吸食毒品,更干起了危险的贩毒活动,买卖越做越大。
  在差人展开的毒品大清洗活动中,桑德罗险中逃生,以后,他碰见了唯一能给他带来暖和的人——梅丽莎(克里斯·维纳 Chris Vianna 饰)。本来,梅丽莎正在寻觅自己失落的儿子,年龄和体魄都与桑德罗相仿,在误打误撞之间,梅丽莎成为了桑德罗的母亲,但这并不能阻止桑德罗走向自我衰亡的脚步。
  1. Video
  2. ID                                       : 1
  3. Format                                   : AVC
  4. Format/Info                              : Advanced Video Codec
  5. Format profile                           : [email protected]
  6. Format settings                          : CABAC / 4 Ref Frames
  7. Format settings, CABAC                   : Yes
  8. Format settings, Reference frames        : 4 frames
  9. Muxing mode                              : Header stripping
  10. Codec ID                                 : V_MPEG4/ISO/AVC
  11. Duration                                 : 1 h 47 min
  12. Bit rate                                 : 9 067 kb/s
  13. Width                                    : 1 920 pixels
  14. Height                                   : 1 080 pixels
  15. Display aspect ratio                     : 16:9
  16. Frame rate mode                          : Constant
  17. Frame rate                               : 25.000 FPS
  18. Color space                              : YUV
  19. Chroma subsampling                       : 4:2:0
  20. Bit depth                                : 8 bits
  21. Scan type                                : Progressive
  22. Bits/(Pixel*Frame)                       : 0.175
  23. Stream size                              : 6.63 GiB (84%)
  24. Writing library                          : x264 core 114 r1924 08d04a4
  25. Encoding settings                        : cabac=1 / ref=4 / deblock=1:0:0 / analyse=0x3:0x133 / me=umh / subme=7 / psy=1 / psy_rd=1.00:0.00 / mixed_ref=1 / me_range=16 / chroma_me=1 / trellis=1 / 8x8dct=1 / cqm=0 / deadzone=21,11 / fast_pskip=0 / chroma_qp_offset=-2 / threads=12 / sliced_threads=0 / nr=0 / decimate=1 / interlaced=0 / constrained_intra=0 / bframes=3 / b_pyramid=2 / b_adapt=1 / b_bias=0 / direct=1 / weightb=1 / open_gop=0 / weightp=2 / keyint=250 / keyint_min=25 / scenecut=40 / intra_refresh=0 / rc_lookahead=40 / rc=2pass / mbtree=1 / bitrate=9067 / ratetol=1.0 / qcomp=0.60 / qpmin=0 / qpmax=69 / qpstep=4 / cplxblur=20.0 / qblur=0.5 / ip_ratio=1.40 / aq=1:1.00
  26. Language                                 : Portuguese
  27. Default                                  : Yes
  28. Forced                                   : No

  29. Audio
  30. ID                                       : 2
  31. Format                                   : DTS
  32. Format/Info                              : Digital Theater Systems
  33. Muxing mode                              : Header stripping
  34. Codec ID                                 : A_DTS
  35. Duration                                 : 1 h 47 min
  36. Bit rate mode                            : Constant
  37. Bit rate                                 : 1 509 kb/s
  38. Channel(s)                               : 6 channels
  39. Channel layout                           : C L R Ls Rs LFE
  40. Sampling rate                            : 48.0 kHz
  41. Frame rate                               : 93.750 FPS (512 SPF)
  42. Bit depth                                : 24 bits
  43. Compression mode                         : Lossy
  44. Stream size                              : 1.13 GiB (14%)
  45. Language                                 : Portuguese
  46. Default                                  : Yes
  47. Forced                                   : No

  48. Text
  49. ID                                       : 3
  50. Format                                   : UTF-8
  51. Codec ID                                 : S_TEXT/UTF8
  52. Codec ID/Info                            : UTF-8 Plain Text
  53. Language                                 : English
  54. Default                                  : Yes
  55. Forced                                   : No
复制代码

巴士惊魂 Last.Stop.174.2008.1080p.BluRay.x264-HD4U 7.92GB-2.png 巴士惊魂 Last.Stop.174.2008.1080p.BluRay.x264-HD4U 7.92GB-3.png 巴士惊魂 Last.Stop.174.2008.1080p.BluRay.x264-HD4U 7.92GB-4.png






回复

使用道具 举报

蓝光币
314
发表于 2020-4-24 18:29:08 | 显示全部楼层
谢谢楼主分享!
回复 支持 反对

使用道具 举报

懒得打字嘛,点击右侧快捷回复 【右侧内容,后台自定义】
您需要登录后才可以回帖 登录 | 立即加入

本版积分规则

Archiver|小黑屋| 蓝光电影网 |网站地图

Copyright © 2021 Comsenz Inc. Powered by 蓝光电影网

蓝光电影网

本站内容由用户自主分享和转载自互联网,转载目的在于传递更多信息,并不代表本网赞同其观点和对其真实性负责。

如有侵权、违反国家法律政策行为,请联系我们,我们会第一时间及时清除和处理!

举报反馈邮箱:[email protected]

快速回复 返回顶部 返回列表