找回密码

蓝光电影网

查看: 339|回复: 2

[其他] 超级摩托车手 I.Superbiker.2011.1080p.BluRay.x264-METH 6.56GB

[复制链接]
蓝光币
515
发表于 2020-4-25 12:39:04 | 显示全部楼层 |阅读模式
超级摩托车手 I.Superbiker.2011.1080p.BluRay.x264-METH 6.56GB-1.png

译  名 超级摩托车手
片  名 I Superbiker
年  代 2011
产  地 西班牙
IMDb评分  6.2/10 from 67 users
IMDb链接  https://www.imdb.com/title/tt1828984
豆瓣评分 0/10 from 0 users
豆瓣链接 https://movie.douban.com/subject/6537956/
导  演 Mark Sloper

标  签 摩托车 | 摩托日志 | ? | rapid

简  介  

  Feature film for release Spring 2011 following four superbike riders through their dramatic British Superbike Season. They are the new GLADIATORS, battling at 200MPH, riding through torturous conditions and risking life and limb at every race meeting. Only one can be the true champion. The film follows the great British hope, Tommy Hill, a fearless racer who cheated death at 14 years old. It tracks James Ellison, the northern heartthrob who came second in 2009, and HAS to win to save his career. Also Gary Mason, an ex privateer now racing on a factory Kawasaki bike who has everything to prove. And finally black leather clad Josh 'Bad Boy' Brookes, the Australian out to steal the crown from the British hopefuls. Film score by David Vanian of the Damned, music by Phil Collen of Def Leppard and Manraze. Directed by Mark Sloper.
  1. Video
  2. ID                                       : 1
  3. Format                                   : AVC
  4. Format/Info                              : Advanced Video Codec
  5. Format profile                           : [email protected]
  6. Format settings                          : CABAC / 4 Ref Frames
  7. Format settings, CABAC                   : Yes
  8. Format settings, Reference frames        : 4 frames
  9. Codec ID                                 : V_MPEG4/ISO/AVC
  10. Duration                                 : 1 h 39 min
  11. Bit rate                                 : 9 243 kb/s
  12. Width                                    : 1 920 pixels
  13. Height                                   : 1 080 pixels
  14. Display aspect ratio                     : 16:9
  15. Frame rate mode                          : Constant
  16. Frame rate                               : 25.000 FPS
  17. Color space                              : YUV
  18. Chroma subsampling                       : 4:2:0
  19. Bit depth                                : 8 bits
  20. Scan type                                : Progressive
  21. Bits/(Pixel*Frame)                       : 0.178
  22. Stream size                              : 6.29 GiB (96%)
  23. Writing library                          : x264 core 115 r1995 c1e60b9
  24. Encoding settings                        : cabac=1 / ref=4 / deblock=1:0:0 / analyse=0x3:0x133 / me=umh / subme=7 / psy=1 / psy_rd=1.00:0.00 / mixed_ref=1 / me_range=16 / chroma_me=1 / trellis=1 / 8x8dct=1 / cqm=0 / deadzone=21,11 / fast_pskip=0 / chroma_qp_offset=-2 / threads=12 / sliced_threads=0 / nr=0 / decimate=1 / interlaced=0 / bluray_compat=0 / constrained_intra=0 / bframes=3 / b_pyramid=2 / b_adapt=1 / b_bias=0 / direct=1 / weightb=1 / open_gop=0 / weightp=2 / keyint=250 / keyint_min=25 / scenecut=40 / intra_refresh=0 / rc_lookahead=40 / rc=2pass / mbtree=1 / bitrate=9243 / ratetol=1.0 / qcomp=0.60 / qpmin=0 / qpmax=69 / qpstep=4 / cplxblur=20.0 / qblur=0.5 / ip_ratio=1.40 / aq=1:1.00
  25. Language                                 : English
  26. Default                                  : Yes
  27. Forced                                   : No

  28. Audio
  29. ID                                       : 2
  30. Format                                   : AC-3
  31. Format/Info                              : Audio Coding 3
  32. Commercial name                          : Dolby Digital
  33. Codec ID                                 : A_AC3
  34. Duration                                 : 1 h 39 min
  35. Bit rate mode                            : Constant
  36. Bit rate                                 : 192 kb/s
  37. Channel(s)                               : 2 channels
  38. Channel layout                           : L R
  39. Sampling rate                            : 48.0 kHz
  40. Frame rate                               : 31.250 FPS (1536 SPF)
  41. Bit depth                                : 16 bits
  42. Compression mode                         : Lossy
  43. Stream size                              : 137 MiB (2%)
  44. Service kind                             : Complete Main
  45. Default                                  : Yes
  46. Forced                                   : No
复制代码

超级摩托车手 I.Superbiker.2011.1080p.BluRay.x264-METH 6.56GB-2.png 超级摩托车手 I.Superbiker.2011.1080p.BluRay.x264-METH 6.56GB-3.png 超级摩托车手 I.Superbiker.2011.1080p.BluRay.x264-METH 6.56GB-4.png






回复

使用道具 举报

蓝光币
1508
发表于 2020-4-25 22:24:07 | 显示全部楼层

这个帖子不回对不起自己!我想我是一天也不能离开蓝光电影网
回复 支持 反对

使用道具 举报

懒得打字嘛,点击右侧快捷回复 【右侧内容,后台自定义】
您需要登录后才可以回帖 登录 | 立即加入

本版积分规则

Archiver|小黑屋| 蓝光电影网 |网站地图

Copyright © 2021 Comsenz Inc. Powered by 蓝光电影网

蓝光电影网

本站内容由用户自主分享和转载自互联网,转载目的在于传递更多信息,并不代表本网赞同其观点和对其真实性负责。

如有侵权、违反国家法律政策行为,请联系我们,我们会第一时间及时清除和处理!

举报反馈邮箱:[email protected]

快速回复 返回顶部 返回列表