找回密码

蓝光电影网

查看: 7265|回复: 8

[美国] 布兰妮蛇蝎美人巡回演唱会 Britney.Spears.Live.The.Femme.Fatale.Tour.2011.1080p.BluRay.x264-KaKa 5.46GB

  [复制链接]
蓝光币
511
发表于 2020-4-25 12:41:50 | 显示全部楼层 |阅读模式
布兰妮蛇蝎美人巡回演唱会 Britney.Spears.Live.The.Femme.Fatale.Tour.2011.1080p.BluRay.x264-KaKa 5.46GB-1.png

译  名 布兰妮蛇蝎美人巡回演唱会
片  名 Britney Spears Live The Femme Fatale Tour
年  代 2011
产  地 美国
类  别 记载片 / 音乐
语  言 英语
IMDb评分  7.2/10 from 594 users
IMDb链接  https://www.imdb.com/title/tt2022347
豆瓣评分 7.3/10 from 182 users
豆瓣链接 https://movie.douban.com/subject/10455285/
导  演 Ted Kenney
主  演 Britney Spears
       Nicki Minaj
       Sabi


标  签 演唱会 | 布兰妮 | 音乐 | 美国 | britneyspears | Live | 2011 | 歌舞

简  介  

  专辑曲目
  01. Britney Spears – Femme Fatale Video Vignette (02:17)
  02. Britney Spears – Hold It Against Me (Live) (04:33)
  03. Britney Spears – Up N’ Down (Live) (03:40)
  04. Britney Spears – 3 (Live) (03:56)
  05. Britney Spears – Piece Of Me (Live) (01:35)
  06. Britney Spears – Sweet Seduction Video Vignette (02:35)
  07. Britney Spears – Big Fat Bass (Feat. Will.i am) (Live) (04:08)
  08. Britney Spears – How I Roll (Live) (03:38)
  09. Britney Spears – Lace & Leather (Live) (03:14)
  10. Britney Spears – If U Seek Amy (Live) (03:47)
  11. Britney Spears – Temptress Video Vignette (02:24)
  12. Britney Spears – Gimme More (Live) (03:28)
  13. Britney Spears – (Drop Dead) Beautiful (Feat. Sabi) (Live) (03:47)
  14. Britney Spears – Don’t Let Me Be The Last To Know (Live) (03:26)
  15. Britney Spears – Boys (Live) (04:01)
  16. Britney Spears – Code Name: Trouble Video Vignette (02:03)
  17. Britney Spears – …Baby One More Time (Live) (01:36)
  18. Britney Spears – S&M (Live) (02:03)
  19. Britney Spears – Trouble For Me (Live) (03:04)
  20. Britney Spears – I’m A Slave 4 U (Live) (03:12)
  21. Britney Spears – I Wanna Go (Live) (04:01)
  22. Britney Spears – Womanizer (Live) (04:44)
  23. Britney Spears – Sexy Assassin Video Vignette (01:45)
  24. Britney Spears – Toxic (Live) (04:57)
  25. Britney Spears – Till The World Ends (Feat. Nicki Minaj) (Live Remix) (05:07)
  1. Video
  2. ID                                       : 1
  3. Format                                   : AVC
  4. Format/Info                              : Advanced Video Codec
  5. Format profile                           : [email protected]
  6. Format settings                          : CABAC / 4 Ref Frames
  7. Format settings, CABAC                   : Yes
  8. Format settings, Reference frames        : 4 frames
  9. Muxing mode                              : Header stripping
  10. Codec ID                                 : V_MPEG4/ISO/AVC
  11. Duration                                 : 1 h 25 min
  12. Bit rate                                 : 8 452 kb/s
  13. Width                                    : 1 920 pixels
  14. Height                                   : 1 080 pixels
  15. Display aspect ratio                     : 16:9
  16. Frame rate mode                          : Constant
  17. Frame rate                               : 23.976 (24000/1001/189150) FPS
  18. Color space                              : YUV
  19. Chroma subsampling                       : 4:2:0
  20. Bit depth                                : 8 bits
  21. Scan type                                : Progressive
  22. Bits/(Pixel*Frame)                       : 0.170
  23. Stream size                              : 4.96 GiB (91%)
  24. Writing library                          : x264 core 119 r2106 07efeb4
  25. Encoding settings                        : cabac=1 / ref=4 / deblock=1:-1:-1 / analyse=0x3:0x113 / me=umh / subme=7 / psy=1 / psy_rd=1.00:0.00 / mixed_ref=1 / me_range=16 / chroma_me=1 / trellis=1 / 8x8dct=1 / cqm=0 / deadzone=21,11 / fast_pskip=1 / chroma_qp_offset=-2 / threads=12 / sliced_threads=0 / nr=0 / decimate=1 / interlaced=0 / bluray_compat=0 / constrained_intra=0 / bframes=3 / b_pyramid=2 / b_adapt=2 / b_bias=0 / direct=3 / weightb=1 / open_gop=0 / weightp=2 / keyint=250 / keyint_min=23 / scenecut=40 / intra_refresh=0 / rc_lookahead=40 / rc=2pass / mbtree=1 / bitrate=8452 / ratetol=1.0 / qcomp=0.60 / qpmin=0 / qpmax=69 / qpstep=4 / cplxblur=20.0 / qblur=0.5 / vbv_maxrate=50000 / vbv_bufsize=50000 / nal_hrd=none / ip_ratio=1.40 / aq=1:1.00
  26. Language                                 : English
  27. Default                                  : Yes
  28. Forced                                   : Yes

  29. Audio
  30. ID                                       : 2
  31. Format                                   : AC-3
  32. Format/Info                              : Audio Coding 3
  33. Commercial name                          : Dolby Digital
  34. Muxing mode                              : Header stripping
  35. Codec ID                                 : A_AC3
  36. Duration                                 : 1 h 25 min
  37. Bit rate mode                            : Constant
  38. Bit rate                                 : 640 kb/s
  39. Channel(s)                               : 6 channels
  40. Channel layout                           : L R C LFE Ls Rs
  41. Sampling rate                            : 48.0 kHz
  42. Frame rate                               : 31.250 FPS (1536 SPF)
  43. Bit depth                                : 16 bits
  44. Compression mode                         : Lossy
  45. Stream size                              : 393 MiB (7%)
  46. Language                                 : English
  47. Service kind                             : Complete Main
  48. Default                                  : Yes
  49. Forced                                   : Yes
复制代码

布兰妮蛇蝎美人巡回演唱会 Britney.Spears.Live.The.Femme.Fatale.Tour.2011.1080p.BluRay.x264-KaKa 5.46GB-2.png 布兰妮蛇蝎美人巡回演唱会 Britney.Spears.Live.The.Femme.Fatale.Tour.2011.1080p.BluRay.x264-KaKa 5.46GB-3.png 布兰妮蛇蝎美人巡回演唱会 Britney.Spears.Live.The.Femme.Fatale.Tour.2011.1080p.BluRay.x264-KaKa 5.46GB-4.png







回复

使用道具 举报

蓝光币
20
发表于 2020-5-30 17:39:35 | 显示全部楼层
好东西齐分享
回复 支持 反对

使用道具 举报

蓝光币
57
发表于 2020-8-16 20:02:21 | 显示全部楼层
1080P的,谢谢楼主分享
回复 支持 反对

使用道具 举报

蓝光币
169
发表于 2021-1-14 14:46:17 | 显示全部楼层
为什这么多的演唱会都没字幕的·知道的话不会白冲了这么多钱
回复 支持 反对

使用道具 举报

蓝光币
169
发表于 2021-1-14 14:49:18 | 显示全部楼层
为什这么多的演唱会都没字幕的·知道的话不会白冲了这么多钱,没字幕的蓝光片源都是垃圾片。
回复 支持 反对

使用道具 举报

蓝光币
169
发表于 2021-1-15 00:10:02 | 显示全部楼层
为什么下载的片源都没字幕的
回复 支持 反对

使用道具 举报

蓝光币
300
发表于 2021-4-26 10:42:35 | 显示全部楼层

这东西我收了!谢谢楼主!蓝光电影网真好!
回复 支持 反对

使用道具 举报

蓝光币
263
发表于 2021-5-10 14:50:28 | 显示全部楼层
感谢楼主分享!
回复 支持 反对

使用道具 举报

蓝光币
65
发表于 2021-7-27 07:41:59 | 显示全部楼层

楼主,大恩不言谢了!蓝光电影网是最棒的!
回复 支持 反对

使用道具 举报

懒得打字嘛,点击右侧快捷回复 【右侧内容,后台自定义】
您需要登录后才可以回帖 登录 | 立即加入

本版积分规则

Archiver|小黑屋| 蓝光电影网 |网站地图

Copyright © 2021 Comsenz Inc. Powered by 蓝光电影网

蓝光电影网

本站内容由用户自主分享和转载自互联网,转载目的在于传递更多信息,并不代表本网赞同其观点和对其真实性负责。

如有侵权、违反国家法律政策行为,请联系我们,我们会第一时间及时清除和处理!

举报反馈邮箱:[email protected]

快速回复 返回顶部 返回列表