找回密码

蓝光电影网

查看: 297|回复: 2

[剧情] 冰壶 Curling.2010.1080p.BluRay.x264-GHOULS 11.90GB

[复制链接]
蓝光币
515
发表于 2020-4-26 10:01:05 | 显示全部楼层 |阅读模式
冰壶 Curling.2010.1080p.BluRay.x264-GHOULS 11.90GB-1.png

译  名 冰壶
片  名 Curling
年  代 2010
产  地 加拿大
类  别 剧情
语  言 法语
上映日期 2010-08-09(洛迦诺电影节)
IMDb评分  6.4/10 from 753 users
IMDb链接  https://www.imdb.com/title/tt1699180
豆瓣评分 6.2/10 from 45 users
豆瓣链接 https://movie.douban.com/subject/5026587/
片  长 92分钟
导  演 德尼·科泰 Denis C?té
编  剧 德尼·科泰 Denis C?té
主  演 Emmanuel Bilodeau
       Philomène Bilodeau
       Sophie Desmarais


标  签 加拿大 | 加拿大电影 | 2010 | DenisC?té | ●Narrative | ○Feature | 2011 | 社会

简  介  

  Set in a village in Quebec, Denis C?té's Curling follows inveterate loner Jean-Fran?ois, a single father, and his isolated 12-year-old daughter Julyvonne. Between his unremarkable jobs, Jean-Fran?ois devotes an awkward energy to Julyvonne until some unexpected events jeopardize the fragile balance of their relationship.

获奖情况  

  第63届洛迦诺国际电影节(2010)
  金豹奖(提名) 德尼·科泰
  最好导演 德尼·科泰
  最好男演员 伊曼纽尔·比洛多
  1. Video
  2. ID                                       : 1
  3. Format                                   : AVC
  4. Format/Info                              : Advanced Video Codec
  5. Format profile                           : [email protected]
  6. Format settings                          : CABAC / 4 Ref Frames
  7. Format settings, CABAC                   : Yes
  8. Format settings, Reference frames        : 4 frames
  9. Codec ID                                 : V_MPEG4/ISO/AVC
  10. Duration                                 : 1 h 35 min
  11. Bit rate                                 : 15.9 Mb/s
  12. Width                                    : 1 918 pixels
  13. Height                                   : 1 038 pixels
  14. Display aspect ratio                     : 1.85:1
  15. Frame rate mode                          : Constant
  16. Frame rate                               : 24.000 FPS
  17. Color space                              : YUV
  18. Chroma subsampling                       : 4:2:0
  19. Bit depth                                : 8 bits
  20. Scan type                                : Progressive
  21. Bits/(Pixel*Frame)                       : 0.334
  22. Stream size                              : 10.7 GiB (90%)
  23. Writing library                          : x264 core 160 r3000 33f9e14
  24. Encoding settings                        : cabac=1 / ref=4 / deblock=1:-3:-3 / analyse=0x3:0x133 / me=umh / subme=10 / psy=1 / psy_rd=1.20:0.00 / mixed_ref=1 / me_range=24 / chroma_me=1 / trellis=2 / 8x8dct=1 / cqm=0 / deadzone=21,11 / fast_pskip=0 / chroma_qp_offset=-2 / threads=24 / lookahead_threads=4 / sliced_threads=0 / nr=0 / decimate=0 / interlaced=0 / bluray_compat=0 / constrained_intra=0 / bframes=8 / b_pyramid=2 / b_adapt=2 / b_bias=0 / direct=3 / weightb=1 / open_gop=0 / weightp=2 / keyint=250 / keyint_min=24 / scenecut=40 / intra_refresh=0 / rc=crf / mbtree=0 / crf=18.0 / qcomp=0.60 / qpmin=0 / qpmax=69 / qpstep=4 / ip_ratio=1.40 / pb_ratio=1.30 / aq=3:0.90
  25. Default                                  : Yes
  26. Forced                                   : No
  27. Color range                              : Limited
  28. Matrix coefficients                      : BT.709

  29. Audio
  30. ID                                       : 2
  31. Format                                   : DTS XLL
  32. Format/Info                              : Digital Theater Systems
  33. Commercial name                          : DTS-HD Master Audio
  34. Codec ID                                 : A_DTS
  35. Duration                                 : 1 h 35 min
  36. Bit rate mode                            : Variable
  37. Bit rate                                 : 1 843 kb/s
  38. Channel(s)                               : 6 channels
  39. Channel layout                           : C L R Ls Rs LFE
  40. Sampling rate                            : 48.0 kHz
  41. Frame rate                               : 93.750 FPS (512 SPF)
  42. Bit depth                                : 16 bits
  43. Compression mode                         : Lossless
  44. Stream size                              : 1.23 GiB (10%)
  45. Language                                 : French
  46. Default                                  : Yes
  47. Forced                                   : No

  48. Text #1
  49. ID                                       : 3
  50. Format                                   : UTF-8
  51. Codec ID                                 : S_TEXT/UTF8
  52. Codec ID/Info                            : UTF-8 Plain Text
  53. Duration                                 : 1 h 27 min
  54. Bit rate                                 : 28 b/s
  55. Count of elements                        : 680
  56. Stream size                              : 18.0 KiB (0%)
  57. Title                                    : English (Forced)
  58. Language                                 : English
  59. Default                                  : Yes
  60. Forced                                   : Yes

  61. Text #2
  62. ID                                       : 4
  63. Format                                   : PGS
  64. Muxing mode                              : zlib
  65. Codec ID                                 : S_HDMV/PGS
  66. Codec ID/Info                            : Picture based subtitle format used on BDs/HD-DVDs
  67. Duration                                 : 1 h 27 min
  68. Bit rate                                 : 15.2 kb/s
  69. Count of elements                        : 1360
  70. Stream size                              : 9.47 MiB (0%)
  71. Language                                 : English
  72. Default                                  : No
  73. Forced                                   : No

  74. Menu
  75. 00:00:00.000                             : en:Chapter 01
  76. 00:07:57.792                             : en:Chapter 02
  77. 00:17:01.625                             : en:Chapter 03
  78. 00:24:58.000                             : en:Chapter 04
  79. 00:31:21.208                             : en:Chapter 05
  80. 00:39:13.125                             : en:Chapter 06
  81. 00:49:11.333                             : en:Chapter 07
  82. 01:00:22.542                             : en:Chapter 08
  83. 01:08:43.667                             : en:Chapter 09
  84. 01:14:15.375                             : en:Chapter 10
  85. 01:22:06.500                             : en:Chapter 11
  86. 01:30:46.583                             : en:Chapter 12
复制代码

冰壶 Curling.2010.1080p.BluRay.x264-GHOULS 11.90GB-2.png






回复

使用道具 举报

懒得打字嘛,点击右侧快捷回复 【右侧内容,后台自定义】
您需要登录后才可以回帖 登录 | 立即加入

本版积分规则

Archiver|小黑屋| 蓝光电影网 |网站地图

Copyright © 2021 Comsenz Inc. Powered by 蓝光电影网

蓝光电影网

本站内容由用户自主分享和转载自互联网,转载目的在于传递更多信息,并不代表本网赞同其观点和对其真实性负责。

如有侵权、违反国家法律政策行为,请联系我们,我们会第一时间及时清除和处理!

举报反馈邮箱:[email protected]

快速回复 返回顶部 返回列表