找回密码

蓝光电影网

查看: 100|回复: 0

[剧情] 谎言和欺骗 Lies.and.Deception.2005.1080p.AMZN.WEBRip.DDP2.0.x264-TEPES 5.94GB

[复制链接]
蓝光币
515
发表于 2020-4-26 10:12:37 | 显示全部楼层 |阅读模式
MV5BMTUxNDIwMTU0OF5BMl5BanBnXkFtZTcwNjIxMDEzMQ@@._V1_.jpg

译  名 假话和欺骗
片  名 Lies and Deception
年  代 2005
产  地 美国
类  别 剧情 / 悬疑 / 惊悚
语  言 英语
上映日期 2005
IMDb评分  5.2/10 from 373 users
IMDb链接  https://www.imdb.com/title/tt0456145
豆瓣评分 0/10 from 0 users
豆瓣链接 https://movie.douban.com/subject/5218508/
片  长 90分钟
导  演 路易斯·贝朗格 Louis Bélanger
编  剧 约翰·爱尔兰 John Ireland
主  演 梅晨·阿米克 M?dchen Amick


标  签 M?dchen

简  介  

  暂无相关剧情先容
  1. Video
  2. ID                                       : 1
  3. Format                                   : AVC
  4. Format/Info                              : Advanced Video Codec
  5. Format profile                           : [email protected]
  6. Format settings                          : CABAC / 4 Ref Frames
  7. Format settings, CABAC                   : Yes
  8. Format settings, Reference frames        : 4 frames
  9. Codec ID                                 : V_MPEG4/ISO/AVC
  10. Duration                                 : 1 h 25 min
  11. Bit rate mode                            : Constant
  12. Bit rate                                 : 10 000 kb/s
  13. Width                                    : 1 920 pixels
  14. Height                                   : 1 080 pixels
  15. Display aspect ratio                     : 16:9
  16. Frame rate mode                          : Constant
  17. Frame rate                               : 23.976 (24000/1001/189150) FPS
  18. Color space                              : YUV
  19. Chroma subsampling                       : 4:2:0
  20. Bit depth                                : 8 bits
  21. Scan type                                : Progressive
  22. Bits/(Pixel*Frame)                       : 0.201
  23. Stream size                              : 5.81 GiB (98%)
  24. Default                                  : Yes
  25. Forced                                   : No
  26. Color range                              : Limited
  27. Color primaries                          : BT.709
  28. Transfer characteristics                 : BT.709
  29. Matrix coefficients                      : BT.709

  30. Audio
  31. ID                                       : 2
  32. Format                                   : E-AC-3
  33. Format/Info                              : Enhanced AC-3
  34. Commercial name                          : Dolby Digital Plus
  35. Codec ID                                 : A_EAC3
  36. Duration                                 : 1 h 25 min
  37. Bit rate mode                            : Constant
  38. Bit rate                                 : 224 kb/s
  39. Channel(s)                               : 2 channels
  40. Channel layout                           : L R
  41. Sampling rate                            : 48.0 kHz
  42. Frame rate                               : 31.250 FPS (1536 SPF)
  43. Compression mode                         : Lossy
  44. Stream size                              : 137 MiB (2%)
  45. Language                                 : English
  46. Service kind                             : Complete Main
  47. Default                                  : Yes
  48. Forced                                   : No

  49. Text #1
  50. ID                                       : 3
  51. Format                                   : UTF-8
  52. Codec ID                                 : S_TEXT/UTF8
  53. Codec ID/Info                            : UTF-8 Plain Text
  54. Duration                                 : 1 h 24 min
  55. Bit rate                                 : 61 b/s
  56. Count of elements                        : 1411
  57. Stream size                              : 37.8 KiB (0%)
  58. Title                                    : English
  59. Language                                 : English
  60. Default                                  : Yes
  61. Forced                                   : No

  62. Text #2
  63. ID                                       : 4
  64. Format                                   : UTF-8
  65. Codec ID                                 : S_TEXT/UTF8
  66. Codec ID/Info                            : UTF-8 Plain Text
  67. Duration                                 : 1 h 23 min
  68. Bit rate                                 : 61 b/s
  69. Count of elements                        : 1411
  70. Stream size                              : 37.8 KiB (0%)
  71. Title                                    : English [CC](SDH)
  72. Language                                 : English
  73. Default                                  : No
  74. Forced                                   : No
复制代码

假话和欺骗 Lies.and.Deception.2005.1080p.AMZN.WEBRip.DDP2.0.x264-TEPES 5.94GB-1.png 假话和欺骗 Lies.and.Deception.2005.1080p.AMZN.WEBRip.DDP2.0.x264-TEPES 5.94GB-2.png 假话和欺骗 Lies.and.Deception.2005.1080p.AMZN.WEBRip.DDP2.0.x264-TEPES 5.94GB-3.png






回复

使用道具 举报

懒得打字嘛,点击右侧快捷回复 【右侧内容,后台自定义】
您需要登录后才可以回帖 登录 | 立即加入

本版积分规则

Archiver|小黑屋| 蓝光电影网 |网站地图

Copyright © 2021 Comsenz Inc. Powered by 蓝光电影网

蓝光电影网

本站内容由用户自主分享和转载自互联网,转载目的在于传递更多信息,并不代表本网赞同其观点和对其真实性负责。

如有侵权、违反国家法律政策行为,请联系我们,我们会第一时间及时清除和处理!

举报反馈邮箱:[email protected]

快速回复 返回顶部 返回列表