找回密码

蓝光电影网

查看: 241|回复: 0

[纪录] 愿我离开 Wish.Me.Away.2011.1080p.AMZN.WEBRip.DDP5.1.x264-TEPES 7.11GB

[复制链接]
蓝光币
515
发表于 2020-4-26 10:21:52 | 显示全部楼层 |阅读模式
愿我分开 Wish.Me.Away.2011.1080p.AMZN.WEBRip.DDP5.1.x264-TEPES 7.11GB-1.png

译  名 愿我分开
片  名 Wish Me Away
年  代 2011
产  地 美国
类  别 记载片
语  言 英语
上映日期 2011-06-22(美国)
IMDb评分  7.4/10 from 332 users
IMDb链接  https://www.imdb.com/title/tt1746264
豆瓣评分 7.9/10 from 192 users
豆瓣链接 https://movie.douban.com/subject/6559182/
导  演 Bobby Birleffi / Beverly Kopf
主  演 Chely Wright
       Jennifer Archer
       Howard Bragman


标  签 记载片 | 美国 | LGBT | 音乐 | 同性 | 长大 | les | 2011

简  介  

  著名村落歌手Chely Wright的列传。
  1. Video
  2. ID                                       : 1
  3. Format                                   : AVC
  4. Format/Info                              : Advanced Video Codec
  5. Format profile                           : [email protected]
  6. Format settings                          : CABAC / 4 Ref Frames
  7. Format settings, CABAC                   : Yes
  8. Format settings, Reference frames        : 4 frames
  9. Codec ID                                 : V_MPEG4/ISO/AVC
  10. Duration                                 : 1 h 36 min
  11. Bit rate mode                            : Constant
  12. Bit rate                                 : 10 000 kb/s
  13. Width                                    : 1 920 pixels
  14. Height                                   : 1 080 pixels
  15. Display aspect ratio                     : 16:9
  16. Frame rate mode                          : Constant
  17. Frame rate                               : 29.970 (30000/1001/189150) FPS
  18. Standard                                 : NTSC
  19. Color space                              : YUV
  20. Chroma subsampling                       : 4:2:0
  21. Bit depth                                : 8 bits
  22. Scan type                                : Progressive
  23. Bits/(Pixel*Frame)                       : 0.161
  24. Stream size                              : 6.67 GiB (94%)
  25. Language                                 : English
  26. Default                                  : Yes
  27. Forced                                   : No
  28. Color range                              : Limited
  29. Color primaries                          : BT.709
  30. Transfer characteristics                 : BT.709
  31. Matrix coefficients                      : BT.709

  32. Audio
  33. ID                                       : 2
  34. Format                                   : E-AC-3
  35. Format/Info                              : Enhanced AC-3
  36. Commercial name                          : Dolby Digital Plus
  37. Codec ID                                 : A_EAC3
  38. Duration                                 : 1 h 36 min
  39. Bit rate mode                            : Constant
  40. Bit rate                                 : 640 kb/s
  41. Channel(s)                               : 6 channels
  42. Channel layout                           : L R C LFE Ls Rs
  43. Sampling rate                            : 48.0 kHz
  44. Frame rate                               : 31.250 FPS (1536 SPF)
  45. Compression mode                         : Lossy
  46. Stream size                              : 443 MiB (6%)
  47. Language                                 : English
  48. Service kind                             : Complete Main
  49. Default                                  : Yes
  50. Forced                                   : No

  51. Text
  52. ID                                       : 3
  53. Format                                   : UTF-8
  54. Codec ID                                 : S_TEXT/UTF8
  55. Codec ID/Info                            : UTF-8 Plain Text
  56. Duration                                 : 1 h 36 min
  57. Bit rate                                 : 86 b/s
  58. Count of elements                        : 1755
  59. Stream size                              : 61.3 KiB (0%)
  60. Title                                    : English [CC](SDH)
  61. Language                                 : English
  62. Default                                  : Yes
  63. Forced                                   : No
复制代码

愿我分开 Wish.Me.Away.2011.1080p.AMZN.WEBRip.DDP5.1.x264-TEPES 7.11GB-2.png 愿我分开 Wish.Me.Away.2011.1080p.AMZN.WEBRip.DDP5.1.x264-TEPES 7.11GB-3.png 愿我分开 Wish.Me.Away.2011.1080p.AMZN.WEBRip.DDP5.1.x264-TEPES 7.11GB-4.png







回复

使用道具 举报

懒得打字嘛,点击右侧快捷回复 【右侧内容,后台自定义】
您需要登录后才可以回帖 登录 | 立即加入

本版积分规则

Archiver|小黑屋| 蓝光电影网 |网站地图

Copyright © 2021 Comsenz Inc. Powered by 蓝光电影网

蓝光电影网

本站内容由用户自主分享和转载自互联网,转载目的在于传递更多信息,并不代表本网赞同其观点和对其真实性负责。

如有侵权、违反国家法律政策行为,请联系我们,我们会第一时间及时清除和处理!

举报反馈邮箱:[email protected]

快速回复 返回顶部 返回列表