找回密码

蓝光电影网

查看: 148|回复: 0

[剧情] 名字之歌/逝者如歌 The.Song.of.Names.2019.720p.BluRay.X264-AMIABLE 2.39GB

[复制链接]
蓝光币
511
发表于 2020-4-26 10:53:20 | 显示全部楼层 |阅读模式
名字之歌/逝者如歌 The.Song.of.Names.2019.720p.BluRay.X264-AMIABLE 2.39GB-1.png

译  名 名字之歌 / 逝者如歌(台)
片  名 The Song of Names
年  代 2019
产  地 加拿大 / 匈牙利
类  别 剧情
语  言 英语
上映日期 2019-09-08(多伦多电影节) / 2019-12-25(美国)
IMDb评分  6.2/10 from 733 users
IMDb链接  https://www.imdb.com/title/tt1657517
豆瓣评分 6.7/10 from 274 users
豆瓣链接 https://movie.douban.com/subject/5151788/
片  长 113分钟
导  演 佛朗索瓦·吉拉德 Fran?ois Girard
编  剧 杰弗里·凯恩 Jeffrey Caine / Norman Lebrecht
主  演 蒂姆·罗斯 Tim Roth
       克里夫·欧文 Clive Owen
       艾迪·伊扎德 Eddie Izzard
       绍尔·鲁宾内克 Saul Rubinek
       凯瑟琳·麦克马克 Catherine McCormack
       乔纳·豪尔-金 Jonah Hauer-King
       格伦·霍威尔 Gerran Howell
       朱利安·沃德姆 Julian Wadham
       卡米尔·雷米泽斯基 Kamil Lemieszewski
       艾米·斯洛安 Amy Sloan
       理查德·布雷默 Richard Bremmer
       麦克斯·麦克米兰 Max Macmillan
       斯坦利·汤森德 Stanley Townsend
       马格达莱娜·谢莱卡 Magdalena Cielecka
       马特·戴维尔 Matt Devere
       杰弗里·凯恩 Jeffrey Caine
       莎伦·佩尔西 Sharon Percy
       Yank Azman
       Tamás Puskás
       Lidia Bogacz
       Jakub Kotynski


标  签 二战 | 音乐 | 剧情 | 英国 | 蒂姆·罗斯 | 2019 | 加拿大 | 安东尼·霍普金斯

简  介  

  按照诺曼·莱布得勒支创作的同名小说改编,报告二战时的伦敦,两个少年马丁和道维多尔成为生死之交。道维多尔是个从华沙亡命过来的小提琴手,借居在马丁家。但是,就在道维多尔的小提琴合奏会的首演当晚,他却奥秘地失落了,这件事成了马丁几十年的心结。
  1. Video
  2. ID                                       : 1
  3. Format                                   : AVC
  4. Format/Info                              : Advanced Video Codec
  5. Format profile                           : [email protected]
  6. Format settings                          : CABAC / 8 Ref Frames
  7. Format settings, CABAC                   : Yes
  8. Format settings, Reference frames        : 8 frames
  9. Codec ID                                 : V_MPEG4/ISO/AVC
  10. Duration                                 : 1 h 53 min
  11. Bit rate                                 : 2 364 kb/s
  12. Width                                    : 1 280 pixels
  13. Height                                   : 536 pixels
  14. Display aspect ratio                     : 2.40:1
  15. Frame rate mode                          : Constant
  16. Frame rate                               : 23.976 (24000/1001/189150) FPS
  17. Color space                              : YUV
  18. Chroma subsampling                       : 4:2:0
  19. Bit depth                                : 8 bits
  20. Scan type                                : Progressive
  21. Bits/(Pixel*Frame)                       : 0.144
  22. Stream size                              : 1.87 GiB (78%)
  23. Writing library                          : x264 core 159 r2991 1771b55
  24. Encoding settings                        : cabac=1 / ref=8 / deblock=1:-3:-3 / analyse=0x3:0x133 / me=umh / subme=9 / psy=1 / psy_rd=1.00:0.00 / mixed_ref=1 / me_range=24 / chroma_me=1 / trellis=2 / 8x8dct=1 / cqm=0 / deadzone=21,11 / fast_pskip=0 / chroma_qp_offset=-2 / threads=17 / lookahead_threads=1 / sliced_threads=0 / nr=0 / decimate=0 / interlaced=0 / bluray_compat=0 / constrained_intra=0 / bframes=3 / b_pyramid=2 / b_adapt=2 / b_bias=0 / direct=3 / weightb=1 / open_gop=0 / weightp=2 / keyint=240 / keyint_min=24 / scenecut=40 / intra_refresh=0 / rc=crf / mbtree=0 / crf=17.0 / qcomp=0.60 / qpmin=0 / qpmax=69 / qpstep=4 / ip_ratio=1.40 / pb_ratio=1.30 / aq=3:0.80
  25. Default                                  : Yes
  26. Forced                                   : No
  27. Color range                              : Limited
  28. Matrix coefficients                      : BT.709

  29. Audio
  30. ID                                       : 2
  31. Format                                   : AC-3
  32. Format/Info                              : Audio Coding 3
  33. Commercial name                          : Dolby Digital
  34. Codec ID                                 : A_AC3
  35. Duration                                 : 1 h 53 min
  36. Bit rate mode                            : Constant
  37. Bit rate                                 : 640 kb/s
  38. Channel(s)                               : 6 channels
  39. Channel layout                           : L R C LFE Ls Rs
  40. Sampling rate                            : 48.0 kHz
  41. Frame rate                               : 31.250 FPS (1536 SPF)
  42. Bit depth                                : 16 bits
  43. Compression mode                         : Lossy
  44. Stream size                              : 518 MiB (21%)
  45. Language                                 : English
  46. Service kind                             : Complete Main
  47. Default                                  : Yes
  48. Forced                                   : No

  49. Text #1
  50. ID                                       : 3
  51. Format                                   : UTF-8
  52. Codec ID                                 : S_TEXT/UTF8
  53. Codec ID/Info                            : UTF-8 Plain Text
  54. Duration                                 : 1 h 10 min
  55. Bit rate                                 : 2 b/s
  56. Count of elements                        : 48
  57. Stream size                              : 1.14 KiB (0%)
  58. Title                                    : Forced SRT
  59. Language                                 : English
  60. Default                                  : Yes
  61. Forced                                   : Yes

  62. Text #2
  63. ID                                       : 4
  64. Format                                   : UTF-8
  65. Codec ID                                 : S_TEXT/UTF8
  66. Codec ID/Info                            : UTF-8 Plain Text
  67. Duration                                 : 1 h 42 min
  68. Bit rate                                 : 43 b/s
  69. Count of elements                        : 1001
  70. Stream size                              : 33.0 KiB (0%)
  71. Title                                    : Stripped SRT
  72. Language                                 : English
  73. Default                                  : No
  74. Forced                                   : No

  75. Text #3
  76. ID                                       : 5
  77. Format                                   : UTF-8
  78. Codec ID                                 : S_TEXT/UTF8
  79. Codec ID/Info                            : UTF-8 Plain Text
  80. Duration                                 : 1 h 45 min
  81. Bit rate                                 : 46 b/s
  82. Count of elements                        : 1105
  83. Stream size                              : 35.5 KiB (0%)
  84. Title                                    : SDH SRT
  85. Language                                 : English
  86. Default                                  : No
  87. Forced                                   : No

  88. Text #4
  89. ID                                       : 6
  90. Format                                   : PGS
  91. Muxing mode                              : zlib
  92. Codec ID                                 : S_HDMV/PGS
  93. Codec ID/Info                            : Picture based subtitle format used on BDs/HD-DVDs
  94. Duration                                 : 1 h 10 min
  95. Bit rate                                 : 1 147 b/s
  96. Count of elements                        : 96
  97. Stream size                              : 589 KiB (0%)
  98. Title                                    : Forced
  99. Language                                 : English
  100. Default                                  : No
  101. Forced                                   : No

  102. Text #5
  103. ID                                       : 7
  104. Format                                   : PGS
  105. Muxing mode                              : zlib
  106. Codec ID                                 : S_HDMV/PGS
  107. Codec ID/Info                            : Picture based subtitle format used on BDs/HD-DVDs
  108. Duration                                 : 1 h 42 min
  109. Bit rate                                 : 23.4 kb/s
  110. Count of elements                        : 2000
  111. Stream size                              : 17.2 MiB (1%)
  112. Title                                    : English
  113. Language                                 : English
  114. Default                                  : No
  115. Forced                                   : No

  116. Text #6
  117. ID                                       : 8
  118. Format                                   : PGS
  119. Muxing mode                              : zlib
  120. Codec ID                                 : S_HDMV/PGS
  121. Codec ID/Info                            : Picture based subtitle format used on BDs/HD-DVDs
  122. Duration                                 : 1 h 45 min
  123. Bit rate                                 : 25.1 kb/s
  124. Count of elements                        : 2210
  125. Stream size                              : 18.9 MiB (1%)
  126. Title                                    : English
  127. Language                                 : English
  128. Default                                  : No
  129. Forced                                   : No

  130. Menu
  131. 00:00:00.000                             : en:Chapter 01
  132. 00:00:00.209                             : en:Chapter 02
  133. 00:11:18.970                             : en:Chapter 03
  134. 00:18:12.967                             : en:Chapter 04
  135. 00:26:36.678                             : en:Chapter 05
  136. 00:32:04.673                             : en:Chapter 06
  137. 00:38:29.974                             : en:Chapter 07
  138. 00:42:44.771                             : en:Chapter 08
  139. 00:47:27.428                             : en:Chapter 09
  140. 00:54:01.029                             : en:Chapter 10
  141. 00:58:31.758                             : en:Chapter 11
  142. 01:04:42.629                             : en:Chapter 12
  143. 01:12:15.748                             : en:Chapter 13
  144. 01:21:08.655                             : en:Chapter 14
  145. 01:27:03.552                             : en:Chapter 15
  146. 01:34:58.109                             : en:Chapter 16
  147. 01:40:10.755                             : en:Chapter 17
  148. 01:45:26.278                             : en:Chapter 18
  149. 01:53:07.906                             : en:Chapter 19
复制代码

名字之歌/逝者如歌 The.Song.of.Names.2019.720p.BluRay.X264-AMIABLE 2.39GB-2.png







回复

使用道具 举报

懒得打字嘛,点击右侧快捷回复 【右侧内容,后台自定义】
您需要登录后才可以回帖 登录 | 立即加入

本版积分规则

Archiver|小黑屋| 蓝光电影网 |网站地图

Copyright © 2021 Comsenz Inc. Powered by 蓝光电影网

蓝光电影网

本站内容由用户自主分享和转载自互联网,转载目的在于传递更多信息,并不代表本网赞同其观点和对其真实性负责。

如有侵权、违反国家法律政策行为,请联系我们,我们会第一时间及时清除和处理!

举报反馈邮箱:[email protected]

快速回复 返回顶部 返回列表