找回密码

蓝光电影网

查看: 212|回复: 0

[喜剧] 管道工艳遇记 Adventures.of.a.Plumbers.Mate.1978.1080p.AMZN.WEBRip.DDP2.0.x264-monkee 6.12GB

[复制链接]
蓝光币
519
发表于 2020-4-27 00:07:57 | 显示全部楼层 |阅读模式
MV5BYjUwNWEzN2EtYzgzOS00ZGEzLTlhMzctOWViYjljYTNjODYyXkEyXkFqcGdeQXVyNjUwMzI2NzU@.jpg

译  名 管道工艳遇记
片  名 Adventures of a Plumber's Mate
年  代 1978
产  地 英国
类  别 笑剧 / 犯罪
语  言 英语
上映日期 1978
IMDb评分  4.0/10 from 310 users
IMDb链接  https://www.imdb.com/title/tt0077125
豆瓣评分 0/10 from 0 users
豆瓣链接 https://movie.douban.com/subject/4705140/
导  演 Stanley A. Long
编  剧 Aubrey Cash / Stephen D. Frances
主  演 Christopher Neil ...  Sid South
       Arthur Mullard ...  Blackie
       Anna Quayle ...  Loretta Proudfoot
       Stephen Lewis ...  Crapper
       ......


标  签 笑剧 | 情色 | 英国 | 有看点 | 剧情 | 70s

简  介  

  Randy plumber, Sid South, enjoys a profession which offers him ample opportunity to bed sexy [email protected]
  1. Video
  2. ID                                       : 1
  3. Format                                   : AVC
  4. Format/Info                              : Advanced Video Codec
  5. Format profile                           : [email protected]
  6. Format settings                          : CABAC / 4 Ref Frames
  7. Format settings, CABAC                   : Yes
  8. Format settings, Reference frames        : 4 frames
  9. Codec ID                                 : V_MPEG4/ISO/AVC
  10. Duration                                 : 1 h 28 min
  11. Bit rate mode                            : Constant
  12. Bit rate                                 : 10 000 kb/s
  13. Width                                    : 1 920 pixels
  14. Height                                   : 1 080 pixels
  15. Display aspect ratio                     : 16:9
  16. Frame rate mode                          : Constant
  17. Frame rate                               : 24.000 FPS
  18. Color space                              : YUV
  19. Chroma subsampling                       : 4:2:0
  20. Bit depth                                : 8 bits
  21. Scan type                                : Progressive
  22. Bits/(Pixel*Frame)                       : 0.201
  23. Stream size                              : 5.98 GiB (98%)
  24. Default                                  : Yes
  25. Forced                                   : No
  26. Color range                              : Limited
  27. Color primaries                          : BT.709
  28. Transfer characteristics                 : BT.709
  29. Matrix coefficients                      : BT.709

  30. Audio
  31. ID                                       : 2
  32. Format                                   : E-AC-3
  33. Format/Info                              : Enhanced AC-3
  34. Commercial name                          : Dolby Digital Plus
  35. Codec ID                                 : A_EAC3
  36. Duration                                 : 1 h 28 min
  37. Bit rate mode                            : Constant
  38. Bit rate                                 : 224 kb/s
  39. Channel(s)                               : 2 channels
  40. Channel layout                           : L R
  41. Sampling rate                            : 48.0 kHz
  42. Frame rate                               : 31.250 FPS (1536 SPF)
  43. Compression mode                         : Lossy
  44. Stream size                              : 142 MiB (2%)
  45. Language                                 : English
  46. Service kind                             : Complete Main
  47. Default                                  : Yes
  48. Forced                                   : No
复制代码

管道工艳遇记 Adventures.of.a.Plumbers.Mate.1978.1080p.AMZN.WEBRip.DDP2.0.x264-monkee 6.12GB-1.png 管道工艳遇记 Adventures.of.a.Plumbers.Mate.1978.1080p.AMZN.WEBRip.DDP2.0.x264-monkee 6.12GB-2.png 管道工艳遇记 Adventures.of.a.Plumbers.Mate.1978.1080p.AMZN.WEBRip.DDP2.0.x264-monkee 6.12GB-3.png







回复

使用道具 举报

懒得打字嘛,点击右侧快捷回复 【右侧内容,后台自定义】
您需要登录后才可以回帖 登录 | 立即加入

本版积分规则

Archiver|小黑屋| 蓝光电影网 |网站地图

Copyright © 2021 Comsenz Inc. Powered by 蓝光电影网

蓝光电影网

本站内容由用户自主分享和转载自互联网,转载目的在于传递更多信息,并不代表本网赞同其观点和对其真实性负责。

如有侵权、违反国家法律政策行为,请联系我们,我们会第一时间及时清除和处理!

举报反馈邮箱:[email protected]

快速回复 返回顶部 返回列表