找回密码

蓝光电影网

查看: 134|回复: 0

[剧情] 爱之情照 The.Photograph.2020.1080p.WEB-DL.DD5.1.H264-FGT 3.70GB

[复制链接]
蓝光币
511
发表于 2020-4-28 20:22:40 | 显示全部楼层 |阅读模式
爱之情照 The.Photograph.2020.1080p.WEB-DL.DD5.1.H264-FGT 3.70GB-1.png

译  名 爱之情照 / Снимката
片  名 The Photograph
年  代 2020
产  地 美国
类  别 剧情 / 恋爱
语  言 英语
上映日期 2020-02-14(美国)
IMDb评分  6.2/10 from 1372 users
IMDb链接  https://www.imdb.com/title/tt7798646
豆瓣评分 0/10 from 0 users
豆瓣链接 https://movie.douban.com/subject/33394389/
片  长 106分钟
导  演 斯特拉·梅吉 Stella Meghie
编  剧 斯特拉·梅吉 Stella Meghie
主  演 勒凯斯·斯坦菲尔德 Lakeith Stanfield
       伊萨·雷 Issa Rae
       切尔西·帕瑞蒂 Chelsea Peretti
       泰柔娜·派丽丝 Teyonah Parris
       小凯文·哈里森 Kelvin Harrison Jr.
       罗布·摩根 Rob Morgan
       考特尼·万斯 Courtney B. Vance
       雅斯曼·塞斯·琼斯 Jasmine Cephas Jones
       里尔·莱尔·哈瓦瑞 Lil Rel Howery
       玛莎·斯蒂芬妮·布莱克 Marsha Stephanie Blake
       肯尼思·肯特·布赖恩 Kenneth Kynt Bryan
       伊兰·诺尔 Y'lan Noel
       瓦琪玛霍利斯 Wakeema Hollis
       香缇·亚当斯 Chanté Adams
       克里斯托弗·卡萨里诺 Christopher Cassarino
       托尼亚·马尔多纳多 Tonya Maldonado


标  签 美国 | 恋爱 | 剧情 | 2020 | 举世 | Love | 影 | Stella_Meghie

简  介  

  著名摄影师克里斯蒂娜·埃姆斯意外归天,留下与她冷淡的女儿梅(Mae),梅感应悲伤、愤慨,但又疑问重重。当梅发现一张藏在保险箱里的照片时,她起头钻研她母亲的晚年生活——这项观察致使了她与一位记者的一段意想不到的爱情。
  1. Video
  2. ID                                       : 1
  3. Format                                   : AVC
  4. Format/Info                              : Advanced Video Codec
  5. Format profile                           : [email protected]
  6. Format settings                          : CABAC / 5 Ref Frames
  7. Format settings, CABAC                   : Yes
  8. Format settings, Reference frames        : 5 frames
  9. Codec ID                                 : V_MPEG4/ISO/AVC
  10. Duration                                 : 1 h 46 min
  11. Bit rate                                 : 4 596 kb/s
  12. Width                                    : 1 920 pixels
  13. Height                                   : 800 pixels
  14. Display aspect ratio                     : 2.40:1
  15. Frame rate mode                          : Constant
  16. Frame rate                               : 23.976 (24000/1001/189150) FPS
  17. Color space                              : YUV
  18. Chroma subsampling                       : 4:2:0
  19. Bit depth                                : 8 bits
  20. Scan type                                : Progressive
  21. Bits/(Pixel*Frame)                       : 0.125
  22. Stream size                              : 3.41 GiB (92%)
  23. Title                                    : The.Photograph.2020.1080p.WEB-DL.DD5.1.H264-FGT
  24. Language                                 : English
  25. Default                                  : Yes
  26. Forced                                   : No
  27. Color range                              : Limited
  28. Color primaries                          : BT.709
  29. Transfer characteristics                 : BT.709
  30. Matrix coefficients                      : BT.709

  31. Audio
  32. ID                                       : 2
  33. Format                                   : AC-3
  34. Format/Info                              : Audio Coding 3
  35. Commercial name                          : Dolby Digital
  36. Codec ID                                 : A_AC3
  37. Duration                                 : 1 h 46 min
  38. Bit rate mode                            : Constant
  39. Bit rate                                 : 384 kb/s
  40. Channel(s)                               : 6 channels
  41. Channel layout                           : L R C LFE Ls Rs
  42. Sampling rate                            : 48.0 kHz
  43. Frame rate                               : 31.250 FPS (1536 SPF)
  44. Bit depth                                : 16 bits
  45. Compression mode                         : Lossy
  46. Stream size                              : 292 MiB (8%)
  47. Title                                    : The.Photograph.2020.1080p.WEB-DL.DD5.1.H264-FGT
  48. Language                                 : English
  49. Service kind                             : Complete Main
  50. Default                                  : Yes
  51. Forced                                   : No

  52. Text
  53. ID                                       : 3
  54. Format                                   : UTF-8
  55. Codec ID                                 : S_TEXT/UTF8
  56. Codec ID/Info                            : UTF-8 Plain Text
  57. Duration                                 : 1 h 43 min
  58. Bit rate                                 : 58 b/s
  59. Count of elements                        : 1388
  60. Stream size                              : 43.9 KiB (0%)
  61. Language                                 : English
  62. Default                                  : Yes
  63. Forced                                   : No

  64. Menu
  65. 00:00:00.000                             : en:1
  66. 00:05:44.052                             : en:2
  67. 00:09:30.653                             : en:3
  68. 00:15:08.115                             : en:4
  69. 00:20:28.393                             : en:5
  70. 00:27:40.866                             : en:6
  71. 00:34:10.338                             : en:7
  72. 00:38:20.379                             : en:8
  73. 00:44:48.433                             : en:9
  74. 00:50:14.007                             : en:10
  75. 00:54:31.639                             : en:11
  76. 00:57:49.503                             : en:12
  77. 01:02:10.888                             : en:13
  78. 01:08:19.630                             : en:14
  79. 01:15:50.622                             : en:15
  80. 01:21:26.665                             : en:16
  81. 01:25:30.533                             : en:17
  82. 01:31:41.277                             : en:18
  83. 01:36:42.036                             : en:19
  84. 01:40:28.011                             : en:20
复制代码

爱之情照 The.Photograph.2020.1080p.WEB-DL.DD5.1.H264-FGT 3.70GB-2.png 爱之情照 The.Photograph.2020.1080p.WEB-DL.DD5.1.H264-FGT 3.70GB-3.png 爱之情照 The.Photograph.2020.1080p.WEB-DL.DD5.1.H264-FGT 3.70GB-4.png







回复

使用道具 举报

懒得打字嘛,点击右侧快捷回复 【右侧内容,后台自定义】
您需要登录后才可以回帖 登录 | 立即加入

本版积分规则

Archiver|小黑屋| 蓝光电影网 |网站地图

Copyright © 2021 Comsenz Inc. Powered by 蓝光电影网

蓝光电影网

本站内容由用户自主分享和转载自互联网,转载目的在于传递更多信息,并不代表本网赞同其观点和对其真实性负责。

如有侵权、违反国家法律政策行为,请联系我们,我们会第一时间及时清除和处理!

举报反馈邮箱:[email protected]

快速回复 返回顶部 返回列表