找回密码

蓝光电影网

查看: 346|回复: 1

[剧情] 乡间小屋/小木屋 The.Lodge.2019.1080p.BluRay.x264-DRONES 11.01GB

[复制链接]
蓝光币
515
发表于 2020-4-28 20:43:56 | 显示全部楼层 |阅读模式
乡下小屋/小木屋 The.Lodge.2019.1080p.BluRay.x264-DRONES 11.01GB-1.png

译  名 乡下小屋 / 小木屋 / 林中小屋
片  名 The Lodge
年  代 2019
产  地 英国 / 美国
类  别 剧情 / 惊悚 / 可骇
语  言 英语
上映日期 2019-01-25(圣丹斯电影节) / 2020-02-07(美国)
IMDb评分  6.6/10 from 3381 users
IMDb链接  https://www.imdb.com/title/tt7347846
豆瓣评分 6.4/10 from 106 users
豆瓣链接 https://movie.douban.com/subject/27180906/
片  长 100分钟
导  演 赛佛林·费奥拉 Severin Fiala / 维罗妮卡·弗兰茨 Veronika Franz
编  剧 赛佛林·费奥拉 Severin Fiala / 维罗妮卡·弗兰茨 Veronika Franz / Sergio Casci
主  演 丽莉·克亚芙 Riley Keough
       理查德·阿米蒂奇 Richard Armitage
       艾丽西亚·希尔维斯通 Alicia Silverstone
       杰登·马泰尔 Jaeden Martell
       Lia McHugh
       Danny Keough
       Rebecca Faulkenberry
       Katelyn Wells
       Lola Reid


标  签 可骇 | 惊悚 | 美国 | 悬疑 | 2019 | 英国 | 圣丹斯电影节 | 自力

简  介  

  故事报告一场大雪将一位女人及两个继子(女)困在偏僻度假村,而在此时代三人关系恶化,可怕的是女子童年黑暗的心理恶魔再次出现。
  1. Video
  2. ID                                       : 1
  3. Format                                   : AVC
  4. Format/Info                              : Advanced Video Codec
  5. Format profile                           : [email protected]
  6. Format settings                          : CABAC / 4 Ref Frames
  7. Format settings, CABAC                   : Yes
  8. Format settings, Reference frames        : 4 frames
  9. Codec ID                                 : V_MPEG4/ISO/AVC
  10. Duration                                 : 1 h 48 min
  11. Bit rate                                 : 11.2 Mb/s
  12. Width                                    : 1 920 pixels
  13. Height                                   : 1 036 pixels
  14. Display aspect ratio                     : 1.85:1
  15. Frame rate mode                          : Constant
  16. Frame rate                               : 23.976 (24000/1001/189150) FPS
  17. Color space                              : YUV
  18. Chroma subsampling                       : 4:2:0
  19. Bit depth                                : 8 bits
  20. Scan type                                : Progressive
  21. Bits/(Pixel*Frame)                       : 0.235
  22. Stream size                              : 8.49 GiB (77%)
  23. Writing library                          : x264 core 160 r3000 33f9e14
  24. Encoding settings                        : cabac=1 / ref=4 / deblock=1:-3:-3 / analyse=0x3:0x133 / me=umh / subme=9 / psy=1 / psy_rd=1.00:0.00 / mixed_ref=1 / me_range=16 / chroma_me=1 / trellis=2 / 8x8dct=1 / cqm=0 / deadzone=21,11 / fast_pskip=1 / chroma_qp_offset=-2 / threads=32 / lookahead_threads=2 / sliced_threads=0 / nr=0 / decimate=1 / interlaced=0 / bluray_compat=0 / constrained_intra=0 / bframes=3 / b_pyramid=2 / b_adapt=2 / b_bias=0 / direct=3 / weightb=1 / open_gop=0 / weightp=2 / keyint=250 / keyint_min=23 / scenecut=40 / intra_refresh=0 / rc_lookahead=60 / rc=crf / mbtree=1 / crf=17.0 / qcomp=0.60 / qpmin=0 / qpmax=69 / qpstep=4 / ip_ratio=1.40 / aq=1:1.00
  25. Language                                 : English
  26. Default                                  : Yes
  27. Forced                                   : No

  28. Audio
  29. ID                                       : 2
  30. Format                                   : DTS XLL
  31. Format/Info                              : Digital Theater Systems
  32. Commercial name                          : DTS-HD Master Audio
  33. Codec ID                                 : A_DTS
  34. Duration                                 : 1 h 48 min
  35. Bit rate mode                            : Variable
  36. Bit rate                                 : 3 318 kb/s
  37. Channel(s)                               : 6 channels
  38. Channel layout                           : C L R Ls Rs LFE
  39. Sampling rate                            : 48.0 kHz
  40. Frame rate                               : 93.750 FPS (512 SPF)
  41. Bit depth                                : 24 bits
  42. Compression mode                         : Lossless
  43. Stream size                              : 2.51 GiB (23%)
  44. Language                                 : English
  45. Default                                  : Yes
  46. Forced                                   : No

  47. Text
  48. ID                                       : 3
  49. Format                                   : PGS
  50. Muxing mode                              : zlib
  51. Codec ID                                 : S_HDMV/PGS
  52. Codec ID/Info                            : Picture based subtitle format used on BDs/HD-DVDs
  53. Duration                                 : 1 h 48 min
  54. Bit rate                                 : 15.9 kb/s
  55. Count of elements                        : 2522
  56. Stream size                              : 12.3 MiB (0%)
  57. Title                                    : English SDH
  58. Language                                 : English
  59. Default                                  : No
  60. Forced                                   : No

  61. Menu
  62. 00:00:00.000                             : en:Chapter 01
  63. 00:12:07.894                             : en:Chapter 02
  64. 00:23:59.063                             : en:Chapter 03
  65. 00:35:26.875                             : en:Chapter 04
  66. 00:47:47.490                             : en:Chapter 05
  67. 00:59:46.875                             : en:Chapter 06
  68. 01:17:27.768                             : en:Chapter 07
  69. 01:42:00.948                             : en:Chapter 08
复制代码

乡下小屋/小木屋 The.Lodge.2019.1080p.BluRay.x264-DRONES 11.01GB-2.png







回复

使用道具 举报

蓝光币
380
发表于 2020-4-29 11:42:31 | 显示全部楼层

感谢楼主的无私分享!要想蓝光电影网好 就靠你我他
回复 支持 反对

使用道具 举报

懒得打字嘛,点击右侧快捷回复 【右侧内容,后台自定义】
您需要登录后才可以回帖 登录 | 立即加入

本版积分规则

Archiver|小黑屋| 蓝光电影网 |网站地图

Copyright © 2021 Comsenz Inc. Powered by 蓝光电影网

蓝光电影网

本站内容由用户自主分享和转载自互联网,转载目的在于传递更多信息,并不代表本网赞同其观点和对其真实性负责。

如有侵权、违反国家法律政策行为,请联系我们,我们会第一时间及时清除和处理!

举报反馈邮箱:[email protected]

快速回复 返回顶部 返回列表