找回密码

蓝光电影网

查看: 2428|回复: 10

[动作] 喋血战士/血卫 Bloodshot.2020.1080p.BluRay.REMUX.AVC.DTS-HD.MA.TrueHD.7.1.Atmos-FGT 27.10GB

[复制链接]
蓝光币
515
发表于 2020-4-28 21:13:27 | 显示全部楼层 |阅读模式
蹀血战士/血卫 Bloodshot.2020.1080p.BluRay.REMUX.AVC.DTS-HD.MA.TrueHD.7.1.Atmos-FGT 27.10GB-1.png

译  名 蹀血战士 / 血卫(台)
片  名 Bloodshot
年  代 2020
产  地 中国大陆 / 美国
类  别 行动 / 科幻
语  言 英语
上映日期 2020(中国大陆) / 2020-03-13(美国)
IMDb评分  5.7/10 from 31009 users
IMDb链接  https://www.imdb.com/title/tt1634106
豆瓣评分 5.5/10 from 9477 users
豆瓣链接 https://movie.douban.com/subject/4830483/
片  长 109分钟
导  演 戴夫·威尔逊 Dave Wilson
编  剧 杰夫·瓦德洛 Jeff Wadlow / 埃里克·海瑟尔 Eric Heisserer / 凯文·范霍克 Kevin VanHook
主  演 范·迪塞尔 Vin Diesel
       艾莎·冈萨雷斯 Eiza González
       萨姆·修汉 Sam Heughan
       托比·凯贝尔 Toby Kebbell
       妲露拉·莱莉 Talulah Riley
       拉蒙尼·莫里斯 Lamorne Morris
       盖·皮尔斯 Guy Pearce
       悉达尔斯·达南杰 Siddharth Dhananjay
       泰勒·迈尔 Tyrel Meyer
       亚历克斯·安洛斯 Alex Anlos
       克莱德·伯宁 Clyde Berning
       杰里米·博阿多 Jeremy Boado
       塔梅尔·伯贾克 Tamer Burjaq
       亚历克斯·埃尔南德斯 Alex Hernandez
       约翰内斯·豪克尔·约翰内森 Jóhannes Haukur Jóhannesson
       帕特里克·克尔顿 Patrick Kerton


标  签 科幻 | 行动 | 美国 | 2020 | 超级豪杰 | 漫画改编 | 蹀血战士 | 奇异

简  介  

  电影按照勇士漫画改编,报告由范·迪塞尔饰演的兵士雷·加里森在战役中意外阵亡,被RST公司操纵尖端纳米技术起死复生,变身立即自愈、媲美超级电脑的超级豪杰——蹀血战士。苏醒的他固执于脑海中残余的记忆碎片,踏上为爱妻的复仇之路,却发现自己竟没法分清实在与虚幻...
  1. Video
  2. ID                                       : 1
  3. Format                                   : AVC
  4. Format/Info                              : Advanced Video Codec
  5. Format profile                           : [email protected]
  6. Format settings                          : CABAC / 2 Ref Frames
  7. Format settings, CABAC                   : Yes
  8. Format settings, Reference frames        : 2 frames
  9. Format settings, GOP                     : M=1, N=10
  10. Codec ID                                 : V_MPEG4/ISO/AVC
  11. Duration                                 : 1 h 49 min
  12. Bit rate mode                            : Variable
  13. Bit rate                                 : 25.1 Mb/s
  14. Width                                    : 1 920 pixels
  15. Height                                   : 1 080 pixels
  16. Display aspect ratio                     : 16:9
  17. Frame rate mode                          : Constant
  18. Frame rate                               : 23.976 (24000/1001/189150) FPS
  19. Color space                              : YUV
  20. Chroma subsampling                       : 4:2:0
  21. Bit depth                                : 8 bits
  22. Scan type                                : Progressive
  23. Bits/(Pixel*Frame)                       : 0.504
  24. Stream size                              : 19.1 GiB (71%)
  25. Title                                    : Bloodshot.2020.1080p.BluRay.REMUX.AVC.DTS-HD.MA.TrueHD.7.1.Atmos-FGT
  26. Language                                 : English
  27. Default                                  : No
  28. Forced                                   : No

  29. Audio #1
  30. ID                                       : 2
  31. Format                                   : MLP FBA 16-ch
  32. Format/Info                              : Meridian Lossless Packing FBA with 16-channel presentation
  33. Commercial name                          : Dolby TrueHD with Dolby Atmos
  34. Codec ID                                 : A_TRUEHD
  35. Duration                                 : 1 h 49 min
  36. Bit rate mode                            : Variable
  37. Bit rate                                 : 3 188 kb/s
  38. Maximum bit rate                         : 5 454 kb/s
  39. Channel(s)                               : 8 channels
  40. Channel layout                           : L R C LFE Ls Rs Lb Rb
  41. Sampling rate                            : 48.0 kHz
  42. Frame rate                               : 1 200.000 FPS (40 SPF)
  43. Compression mode                         : Lossless
  44. Stream size                              : 2.43 GiB (9%)
  45. Title                                    : Bloodshot.2020.1080p.BluRay.REMUX.AVC.DTS-HD.MA.TrueHD.7.1.Atmos-FGT
  46. Language                                 : English
  47. Default                                  : Yes
  48. Forced                                   : No
  49. Number of dynamic objects                : 11
  50. Bed channel count                        : 1 channel
  51. Bed channel configuration                : LFE

  52. Audio #2
  53. ID                                       : 3
  54. Format                                   : DTS XLL
  55. Format/Info                              : Digital Theater Systems
  56. Commercial name                          : DTS-HD Master Audio
  57. Codec ID                                 : A_DTS
  58. Duration                                 : 1 h 49 min
  59. Bit rate mode                            : Variable
  60. Bit rate                                 : 3 907 kb/s
  61. Channel(s)                               : 8 channels
  62. Channel layout                           : C L R LFE Lb Rb Lss Rss
  63. Sampling rate                            : 48.0 kHz
  64. Frame rate                               : 93.750 FPS (512 SPF)
  65. Bit depth                                : 24 bits
  66. Compression mode                         : Lossless
  67. Stream size                              : 2.98 GiB (11%)
  68. Title                                    : Bloodshot.2020.1080p.BluRay.REMUX.AVC.DTS-HD.MA.TrueHD.7.1.Atmos-FGT
  69. Language                                 : English
  70. Default                                  : No
  71. Forced                                   : No

  72. Audio #3
  73. ID                                       : 4
  74. Format                                   : AC-3
  75. Format/Info                              : Audio Coding 3
  76. Commercial name                          : Dolby Digital
  77. Codec ID                                 : A_AC3
  78. Duration                                 : 1 h 49 min
  79. Bit rate mode                            : Constant
  80. Bit rate                                 : 640 kb/s
  81. Channel(s)                               : 6 channels
  82. Channel layout                           : L R C LFE Ls Rs
  83. Sampling rate                            : 48.0 kHz
  84. Frame rate                               : 31.250 FPS (1536 SPF)
  85. Bit depth                                : 16 bits
  86. Compression mode                         : Lossy
  87. Stream size                              : 500 MiB (2%)
  88. Title                                    : Bloodshot.2020.1080p.BluRay.REMUX.AVC.DTS-HD.MA.TrueHD.7.1.Atmos-FGT
  89. Language                                 : English
  90. Service kind                             : Complete Main
  91. Default                                  : No
  92. Forced                                   : No

  93. Audio #4
  94. ID                                       : 5
  95. Format                                   : AC-3
  96. Format/Info                              : Audio Coding 3
  97. Commercial name                          : Dolby Digital
  98. Codec ID                                 : A_AC3
  99. Duration                                 : 1 h 49 min
  100. Bit rate mode                            : Constant
  101. Bit rate                                 : 640 kb/s
  102. Channel(s)                               : 6 channels
  103. Channel layout                           : L R C LFE Ls Rs
  104. Sampling rate                            : 48.0 kHz
  105. Frame rate                               : 31.250 FPS (1536 SPF)
  106. Bit depth                                : 16 bits
  107. Compression mode                         : Lossy
  108. Stream size                              : 500 MiB (2%)
  109. Title                                    : Bloodshot.2020.1080p.BluRay.REMUX.AVC.DTS-HD.MA.TrueHD.7.1.Atmos-FGT
  110. Language                                 : English
  111. Service kind                             : Complete Main
  112. Default                                  : No
  113. Forced                                   : No

  114. Audio #5
  115. ID                                       : 6
  116. Format                                   : AC-3
  117. Format/Info                              : Audio Coding 3
  118. Commercial name                          : Dolby Digital
  119. Codec ID                                 : A_AC3
  120. Duration                                 : 1 h 49 min
  121. Bit rate mode                            : Constant
  122. Bit rate                                 : 640 kb/s
  123. Channel(s)                               : 6 channels
  124. Channel layout                           : L R C LFE Ls Rs
  125. Sampling rate                            : 48.0 kHz
  126. Frame rate                               : 31.250 FPS (1536 SPF)
  127. Bit depth                                : 16 bits
  128. Compression mode                         : Lossy
  129. Stream size                              : 500 MiB (2%)
  130. Title                                    : Bloodshot.2020.1080p.BluRay.REMUX.AVC.DTS-HD.MA.TrueHD.7.1.Atmos-FGT
  131. Language                                 : French
  132. Service kind                             : Complete Main
  133. Default                                  : No
  134. Forced                                   : No

  135. Audio #6
  136. ID                                       : 7
  137. Format                                   : AC-3
  138. Format/Info                              : Audio Coding 3
  139. Commercial name                          : Dolby Digital
  140. Codec ID                                 : A_AC3
  141. Duration                                 : 1 h 49 min
  142. Bit rate mode                            : Constant
  143. Bit rate                                 : 640 kb/s
  144. Channel(s)                               : 6 channels
  145. Channel layout                           : L R C LFE Ls Rs
  146. Sampling rate                            : 48.0 kHz
  147. Frame rate                               : 31.250 FPS (1536 SPF)
  148. Bit depth                                : 16 bits
  149. Compression mode                         : Lossy
  150. Stream size                              : 500 MiB (2%)
  151. Title                                    : Bloodshot.2020.1080p.BluRay.REMUX.AVC.DTS-HD.MA.TrueHD.7.1.Atmos-FGT
  152. Language                                 : French
  153. Service kind                             : Complete Main
  154. Default                                  : No
  155. Forced                                   : No

  156. Audio #7
  157. ID                                       : 8
  158. Format                                   : AC-3
  159. Format/Info                              : Audio Coding 3
  160. Commercial name                          : Dolby Digital
  161. Codec ID                                 : A_AC3
  162. Duration                                 : 1 h 49 min
  163. Bit rate mode                            : Constant
  164. Bit rate                                 : 640 kb/s
  165. Channel(s)                               : 6 channels
  166. Channel layout                           : L R C LFE Ls Rs
  167. Sampling rate                            : 48.0 kHz
  168. Frame rate                               : 31.250 FPS (1536 SPF)
  169. Bit depth                                : 16 bits
  170. Compression mode                         : Lossy
  171. Stream size                              : 500 MiB (2%)
  172. Title                                    : Bloodshot.2020.1080p.BluRay.REMUX.AVC.DTS-HD.MA.TrueHD.7.1.Atmos-FGT
  173. Language                                 : Spanish
  174. Service kind                             : Complete Main
  175. Default                                  : No
  176. Forced                                   : No

  177. Text #1
  178. ID                                       : 9
  179. Format                                   : UTF-8
  180. Codec ID                                 : S_TEXT/UTF8
  181. Codec ID/Info                            : UTF-8 Plain Text
  182. Duration                                 : 1 h 41 min
  183. Bit rate                                 : 45 b/s
  184. Count of elements                        : 1015
  185. Stream size                              : 33.9 KiB (0%)
  186. Title                                    : English-SRT
  187. Language                                 : English
  188. Default                                  : Yes
  189. Forced                                   : No

  190. Text #2
  191. ID                                       : 10
  192. Format                                   : PGS
  193. Muxing mode                              : zlib
  194. Codec ID                                 : S_HDMV/PGS
  195. Codec ID/Info                            : Picture based subtitle format used on BDs/HD-DVDs
  196. Duration                                 : 1 h 41 min
  197. Bit rate                                 : 28.0 kb/s
  198. Count of elements                        : 2030
  199. Stream size                              : 20.3 MiB (0%)
  200. Title                                    : English-PGS
  201. Language                                 : English
  202. Default                                  : No
  203. Forced                                   : No

  204. Text #3
  205. ID                                       : 11
  206. Format                                   : PGS
  207. Muxing mode                              : zlib
  208. Codec ID                                 : S_HDMV/PGS
  209. Codec ID/Info                            : Picture based subtitle format used on BDs/HD-DVDs
  210. Duration                                 : 1 h 43 min
  211. Bit rate                                 : 30.9 kb/s
  212. Count of elements                        : 2318
  213. Stream size                              : 22.9 MiB (0%)
  214. Title                                    : English-SDH-PGS
  215. Language                                 : English
  216. Default                                  : No
  217. Forced                                   : No

  218. Text #4
  219. ID                                       : 12
  220. Format                                   : PGS
  221. Muxing mode                              : zlib
  222. Codec ID                                 : S_HDMV/PGS
  223. Codec ID/Info                            : Picture based subtitle format used on BDs/HD-DVDs
  224. Duration                                 : 1 h 48 min
  225. Bit rate                                 : 23.1 kb/s
  226. Count of elements                        : 2234
  227. Stream size                              : 17.8 MiB (0%)
  228. Title                                    : French-PGS
  229. Language                                 : French
  230. Default                                  : No
  231. Forced                                   : No

  232. Text #5
  233. ID                                       : 13
  234. Format                                   : PGS
  235. Muxing mode                              : zlib
  236. Codec ID                                 : S_HDMV/PGS
  237. Codec ID/Info                            : Picture based subtitle format used on BDs/HD-DVDs
  238. Duration                                 : 1 h 48 min
  239. Bit rate                                 : 25.7 kb/s
  240. Count of elements                        : 2204
  241. Stream size                              : 19.9 MiB (0%)
  242. Title                                    : Spanish-PGS
  243. Language                                 : Spanish
  244. Default                                  : No
  245. Forced                                   : No

  246. Text #6
  247. ID                                       : 14
  248. Format                                   : PGS
  249. Muxing mode                              : zlib
  250. Codec ID                                 : S_HDMV/PGS
  251. Codec ID/Info                            : Picture based subtitle format used on BDs/HD-DVDs
  252. Duration                                 : 1 h 48 min
  253. Bit rate                                 : 598 b/s
  254. Count of elements                        : 48
  255. Stream size                              : 473 KiB (0%)
  256. Title                                    : Spanish-FORCED-PGS
  257. Language                                 : Spanish
  258. Default                                  : No
  259. Forced                                   : No

  260. Text #7
  261. ID                                       : 15
  262. Format                                   : PGS
  263. Muxing mode                              : zlib
  264. Codec ID                                 : S_HDMV/PGS
  265. Codec ID/Info                            : Picture based subtitle format used on BDs/HD-DVDs
  266. Duration                                 : 1 h 44 min
  267. Bit rate                                 : 267 b/s
  268. Count of elements                        : 24
  269. Stream size                              : 205 KiB (0%)
  270. Title                                    : French-PGS
  271. Language                                 : French
  272. Default                                  : No
  273. Forced                                   : No

  274. Text #8
  275. ID                                       : 16
  276. Format                                   : PGS
  277. Muxing mode                              : zlib
  278. Codec ID                                 : S_HDMV/PGS
  279. Codec ID/Info                            : Picture based subtitle format used on BDs/HD-DVDs
  280. Duration                                 : 1 h 44 min
  281. Bit rate                                 : 267 b/s
  282. Count of elements                        : 24
  283. Stream size                              : 205 KiB (0%)
  284. Title                                    : French-FORCED-PGS
  285. Language                                 : French
  286. Default                                  : No
  287. Forced                                   : No

  288. Menu
  289. 00:00:00.000                             : en:Chapter 01
  290. 00:07:06.384                             : en:Chapter 02
  291. 00:13:56.126                             : en:Chapter 03
  292. 00:20:36.860                             : en:Chapter 04
  293. 00:25:05.420                             : en:Chapter 05
  294. 00:32:11.179                             : en:Chapter 06
  295. 00:41:41.499                             : en:Chapter 07
  296. 00:46:39.379                             : en:Chapter 08
  297. 00:53:35.337                             : en:Chapter 09
  298. 01:02:28.661                             : en:Chapter 10
  299. 01:08:59.343                             : en:Chapter 11
  300. 01:12:42.316                             : en:Chapter 12
  301. 01:19:15.751                             : en:Chapter 13
  302. 01:26:49.996                             : en:Chapter 14
  303. 01:31:07.170                             : en:Chapter 15
  304. 01:38:31.155                             : en:Chapter 16
复制代码

蹀血战士/血卫 Bloodshot.2020.1080p.BluRay.REMUX.AVC.DTS-HD.MA.TrueHD.7.1.Atmos-FGT 27.10GB-2.png 蹀血战士/血卫 Bloodshot.2020.1080p.BluRay.REMUX.AVC.DTS-HD.MA.TrueHD.7.1.Atmos-FGT 27.10GB-3.png 蹀血战士/血卫 Bloodshot.2020.1080p.BluRay.REMUX.AVC.DTS-HD.MA.TrueHD.7.1.Atmos-FGT 27.10GB-4.png







回复

使用道具 举报

蓝光币
1123
发表于 2020-4-29 14:04:18 | 显示全部楼层

这东西我收了!谢谢楼主!蓝光电影网真好!
回复 支持 反对

使用道具 举报

蓝光币
63
发表于 2020-4-30 00:31:08 | 显示全部楼层

楼主太厉害了!楼主,电影应该很好看我觉得蓝光电影网真是个好地方!
回复 支持 反对

使用道具 举报

蓝光币
0
发表于 2020-5-8 10:25:36 | 显示全部楼层

这东西我收了!谢谢楼主!蓝光电影网真好!
回复 支持 反对

使用道具 举报

蓝光币
75
发表于 2021-5-10 15:19:08 | 显示全部楼层
楼主发贴辛苦了,谢谢楼主分享!我觉得蓝光电影网是注册对了!
回复 支持 反对

使用道具 举报

蓝光币
607
发表于 2021-7-29 20:29:34 | 显示全部楼层

其实我一直觉得楼主的品味不错!呵呵!蓝光电影网太棒了!
回复 支持 反对

使用道具 举报

蓝光币
1
发表于 2021-8-6 09:39:18 | 显示全部楼层
非常感谢大神的分享
回复 支持 反对

使用道具 举报

蓝光币
1
发表于 2021-8-6 09:40:38 | 显示全部楼层
非常感谢大神的分享
回复 支持 反对

使用道具 举报

蓝光币
446
发表于 2021-8-16 17:58:09 | 显示全部楼层
感谢分享好资源~!
回复 支持 反对

使用道具 举报

蓝光币
8
发表于 2021-8-21 13:52:29 | 显示全部楼层

感谢楼主的无私分享!
回复 支持 反对

使用道具 举报

懒得打字嘛,点击右侧快捷回复 【右侧内容,后台自定义】
您需要登录后才可以回帖 登录 | 立即加入

本版积分规则

Archiver|小黑屋| 蓝光电影网 |网站地图

Copyright © 2021 Comsenz Inc. Powered by 蓝光电影网

蓝光电影网

本站内容由用户自主分享和转载自互联网,转载目的在于传递更多信息,并不代表本网赞同其观点和对其真实性负责。

如有侵权、违反国家法律政策行为,请联系我们,我们会第一时间及时清除和处理!

举报反馈邮箱:[email protected]

快速回复 返回顶部 返回列表