找回密码

蓝光电影网

查看: 665|回复: 5

[剧情] 五亿探长雷洛传2:父子情仇 Lee.Rock.II.1991.CHINESE.1080p.BluRay.x264.DTS-FGT 10.11GB

[复制链接]
蓝光币
515
发表于 2020-4-28 23:36:05 | 显示全部楼层 |阅读模式
五亿探长雷洛传2:父子情仇 Lee.Rock.II.1991.CHINESE.1080p.BluRay.x264.DTS-FGT 10.11GB-1.png

译  名 五亿探长雷洛传2:父子情仇 / Lee Rock II
片  名 五億探長雷洛傳II之父子情仇
年  代 1991
产  地 中国香港
类  别 剧情 / 犯罪
语  言 粤语
上映日期 1991-10-10(中国香港)
IMDb评分  6.7/10 from 390 users
IMDb链接  https://www.imdb.com/title/tt0105846
豆瓣评分 7.4/10 from 24221 users
豆瓣链接 https://movie.douban.com/subject/1300774/
片  长 111 分钟
导  演 刘国昌 Lawrence Ah Mon
编  剧 陈文强 Man Keung Chan
主  演 刘德华 Andy Lau
       郭富城 Aaron Kwok
       吴孟达 Man Tat Ng
       邱淑贞 Chingmy Yau
       张敏 Sharla Cheung
       秦沛 Paul Chun


标  签 刘德华 | 香港 | 香港电影 | 黑帮 | 郭富城 | 警匪 | 犯罪 | 1991

简  介  

  上集的末端,雷洛(刘德华 饰)遇上了阿霞(邱淑贞 饰),并见到自己的儿子雷用贤,本来昔时阿霞被亲戚带到了东莞,逃过了那场大火,那时已怀孕孕。雷诺自觉愧对他们母子,和妻子白月嫦(张敏 饰)商量后,预备纳阿霞为妾,谁知此时,港英政府公布拔除大清律例,履行一夫一妻制,阿霞无法 之下,带着儿子远走异乡。
  十多年以后,一家人再次重逢。此时的雷洛荣升总华探长,履历了偏门百花齐放的六十年月,积累了巨额财富,成为那时社会最叱诧风云的人物,不外潜伏的危险也渐渐袭来;阿霞一人在外洋辛劳,供儿子念书,身染沉痾;儿子雷用贤(郭富城 饰)大学结业,是港英政府筹建廉政公署而招揽的人材,对父亲的所作所为深恶痛绝。
  阿霞病危,雷洛带伤到医院探望,雷洛的对头也追杀到了医院,儿子雷用贤看见父亲堕入险境,心中也展开了剧烈的天人交兵……
  1. Video
  2. ID                                       : 1
  3. Format                                   : AVC
  4. Format/Info                              : Advanced Video Codec
  5. Format profile                           : [email protected]
  6. Format settings                          : CABAC / 4 Ref Frames
  7. Format settings, CABAC                   : Yes
  8. Format settings, Reference frames        : 4 frames
  9. Codec ID                                 : V_MPEG4/ISO/AVC
  10. Duration                                 : 1 h 51 min
  11. Bit rate                                 : 11.5 Mb/s
  12. Width                                    : 1 920 pixels
  13. Height                                   : 1 080 pixels
  14. Display aspect ratio                     : 16:9
  15. Frame rate mode                          : Constant
  16. Frame rate                               : 24.000 FPS
  17. Color space                              : YUV
  18. Chroma subsampling                       : 4:2:0
  19. Bit depth                                : 8 bits
  20. Scan type                                : Progressive
  21. Bits/(Pixel*Frame)                       : 0.231
  22. Stream size                              : 8.93 GiB (88%)
  23. Title                                    : Lee.Rock.II.1991.CHINESE.1080p.BluRay.x264.DTS-FGT
  24. Writing library                          : x264 core 148 r2748 97eaef2
  25. Encoding settings                        : cabac=1 / ref=4 / deblock=1:-2:-2 / analyse=0x3:0x113 / me=umh / subme=9 / psy=1 / psy_rd=1.00:0.15 / mixed_ref=1 / me_range=16 / chroma_me=1 / trellis=2 / 8x8dct=1 / cqm=0 / deadzone=21,11 / fast_pskip=1 / chroma_qp_offset=-3 / threads=24 / lookahead_threads=3 / sliced_threads=0 / nr=0 / decimate=1 / interlaced=0 / bluray_compat=0 / constrained_intra=0 / bframes=3 / b_pyramid=2 / b_adapt=1 / b_bias=0 / direct=3 / weightb=1 / open_gop=0 / weightp=2 / keyint=250 / keyint_min=25 / scenecut=40 / intra_refresh=0 / rc_lookahead=50 / rc=2pass / mbtree=1 / bitrate=11500 / ratetol=1.0 / qcomp=0.60 / qpmin=0 / qpmax=69 / qpstep=4 / cplxblur=20.0 / qblur=0.5 / vbv_maxrate=31250 / vbv_bufsize=31250 / nal_hrd=none / filler=0 / ip_ratio=1.40 / aq=1:1.00
  26. Language                                 : Chinese
  27. Default                                  : Yes
  28. Forced                                   : No

  29. Audio
  30. ID                                       : 2
  31. Format                                   : DTS
  32. Format/Info                              : Digital Theater Systems
  33. Codec ID                                 : A_DTS
  34. Duration                                 : 1 h 51 min
  35. Bit rate mode                            : Constant
  36. Bit rate                                 : 1 509 kb/s
  37. Channel(s)                               : 6 channels
  38. Channel layout                           : C L R Ls Rs LFE
  39. Sampling rate                            : 48.0 kHz
  40. Frame rate                               : 93.750 FPS (512 SPF)
  41. Bit depth                                : 16 bits
  42. Compression mode                         : Lossy
  43. Stream size                              : 1.17 GiB (12%)
  44. Title                                    : Lee.Rock.II.1991.CHINESE.1080p.BluRay.x264.DTS-FGT
  45. Language                                 : Chinese
  46. Default                                  : Yes
  47. Forced                                   : No

  48. Text
  49. ID                                       : 3
  50. Format                                   : UTF-8
  51. Codec ID                                 : S_TEXT/UTF8
  52. Codec ID/Info                            : UTF-8 Plain Text
  53. Duration                                 : 1 h 49 min
  54. Bit rate                                 : 53 b/s
  55. Count of elements                        : 1367
  56. Stream size                              : 42.6 KiB (0%)
  57. Language                                 : English
  58. Default                                  : Yes
  59. Forced                                   : No

  60. Menu
  61. 00:00:00.000                             : en:??? 01 ???
  62. 00:11:01.500                             : en:??? 02 ???
  63. 00:17:09.291                             : en:??? 03 ???
  64. 00:27:43.375                             : en:??? 04 ???
  65. 00:37:16.375                             : en:??? 05 ???
  66. 00:46:14.875                             : en:??? 06 ???
  67. 00:54:58.125                             : en:??? 07 ???
  68. 01:04:16.791                             : en:??? 08 ???
  69. 01:16:13.208                             : en:??? 09 ???
  70. 01:23:41.583                             : en:??? 10 ???
  71. 01:32:25.750                             : en:??? 11 ???
  72. 01:42:30.500                             : en:??? 12 ???
复制代码

五亿探长雷洛传2:父子情仇 Lee.Rock.II.1991.CHINESE.1080p.BluRay.x264.DTS-FGT 10.11GB-2.png 五亿探长雷洛传2:父子情仇 Lee.Rock.II.1991.CHINESE.1080p.BluRay.x264.DTS-FGT 10.11GB-3.png 五亿探长雷洛传2:父子情仇 Lee.Rock.II.1991.CHINESE.1080p.BluRay.x264.DTS-FGT 10.11GB-4.png







回复

使用道具 举报

蓝光币
641
发表于 2020-4-29 09:19:22 | 显示全部楼层
谢谢楼主无私分享。
回复 支持 反对

使用道具 举报

蓝光币
27
发表于 2020-4-29 13:42:03 | 显示全部楼层
刘德华演得很不错的电影,感谢楼主!
回复 支持 反对

使用道具 举报

蓝光币
337
发表于 2020-4-29 23:05:16 | 显示全部楼层

这个帖子不回对不起自己!我想我是一天也不能离开蓝光电影网
回复 支持 反对

使用道具 举报

蓝光币
70
发表于 2020-5-9 23:05:03 | 显示全部楼层
唉,这回两个天王都老了,不用再装了
回复 支持 反对

使用道具 举报

蓝光币
31
发表于 2021-9-19 12:13:38 | 显示全部楼层
好资源,感谢楼主!
回复 支持 反对

使用道具 举报

懒得打字嘛,点击右侧快捷回复 【右侧内容,后台自定义】
您需要登录后才可以回帖 登录 | 立即加入

本版积分规则

Archiver|小黑屋| 蓝光电影网 |网站地图

Copyright © 2021 Comsenz Inc. Powered by 蓝光电影网

蓝光电影网

本站内容由用户自主分享和转载自互联网,转载目的在于传递更多信息,并不代表本网赞同其观点和对其真实性负责。

如有侵权、违反国家法律政策行为,请联系我们,我们会第一时间及时清除和处理!

举报反馈邮箱:[email protected]

快速回复 返回顶部 返回列表