找回密码

蓝光电影网

查看: 263|回复: 2

[剧情] 打工狂想曲 Gift.From.Heaven.1989.CHINESE.1080p.BluRay.x264.DTS-FGT 8.60GB

[复制链接]
蓝光币
515
发表于 2020-4-28 23:38:59 | 显示全部楼层 |阅读模式
打工狂想曲 Gift.From.Heaven.1989.CHINESE.1080p.BluRay.x264.DTS-FGT 8.60GB-1.png

译  名 A Modern Daydream / Gift from Heaven
片  名 打工狂想曲
年  代 1989
产  地 中国香港
类  别 笑剧
语  言 粤语
上映日期 1989-10-27(中国香港)
IMDb评分  5.8/10 from 27 users
IMDb链接  https://www.imdb.com/title/tt0097141
豆瓣评分 7.0/10 from 1734 users
豆瓣链接 https://movie.douban.com/subject/3211323/
片  长 94 分钟
导  演 钱永强
编  剧 方志豪 / 张希玲
主  演 郑裕玲 Carol 'Do Do' Cheng
       王祖贤 Joey Wong
       刘以达
       林忆莲 Sandy Lam
       郑浩南 Mark Cheng
       尔冬升 Tung-shing Yee
       林保怡 Bowie Lam


标  签 王祖贤 | 香港 | 笑剧 | 香港电影 | 郑裕玲 | 林忆莲 | 1989 | 尔冬升

简  介  

  贝奇,安吉和辛迪是在同一间公司里工作的同事,私底下三个姑娘亦是豪情非常要好的好友。一次偶然中,三人在公司里捡到了一大袋钱,鬼摸脑壳的她们将钱拿走藏在了贝奇的家中。虽然脑壳里有一万个想要用这笔钱来买的工具,但三人并不敢在绝不知情的情况下轻易的动用这笔钱。
  本来,这笔巨款的仆人是公司的总司理康大维,他受贿受贿损人利己的行为失慎曝光,知情者因而向其勒索了一笔巨款,哪晓得却被贝奇等人半路拿走。勒索者眼看着没有拿到钱,因而将康大维的所作所为告发给了警方,康大维随即接管了观察。得知这一究竟,三个姑娘的心简直提到了嗓子眼,那一带钱也恍如不是钱了,而是一颗随时城市爆炸的按时炸弹。
  1. Video
  2. ID                                       : 1
  3. Format                                   : AVC
  4. Format/Info                              : Advanced Video Codec
  5. Format profile                           : [email protected]
  6. Format settings                          : CABAC / 4 Ref Frames
  7. Format settings, CABAC                   : Yes
  8. Format settings, Reference frames        : 4 frames
  9. Codec ID                                 : V_MPEG4/ISO/AVC
  10. Duration                                 : 1 h 34 min
  11. Bit rate                                 : 11.5 Mb/s
  12. Width                                    : 1 920 pixels
  13. Height                                   : 1 080 pixels
  14. Display aspect ratio                     : 16:9
  15. Frame rate mode                          : Constant
  16. Frame rate                               : 24.000 FPS
  17. Color space                              : YUV
  18. Chroma subsampling                       : 4:2:0
  19. Bit depth                                : 8 bits
  20. Scan type                                : Progressive
  21. Bits/(Pixel*Frame)                       : 0.231
  22. Stream size                              : 7.60 GiB (88%)
  23. Title                                    : Gift.From.Heaven.1989.CHINESE.1080p.BluRay.x264.DTS-FGT
  24. Writing library                          : x264 core 148 r2748 97eaef2
  25. Encoding settings                        : cabac=1 / ref=4 / deblock=1:-2:-2 / analyse=0x3:0x113 / me=umh / subme=9 / psy=1 / psy_rd=1.00:0.15 / mixed_ref=1 / me_range=16 / chroma_me=1 / trellis=2 / 8x8dct=1 / cqm=0 / deadzone=21,11 / fast_pskip=1 / chroma_qp_offset=-3 / threads=24 / lookahead_threads=3 / sliced_threads=0 / nr=0 / decimate=1 / interlaced=0 / bluray_compat=0 / constrained_intra=0 / bframes=3 / b_pyramid=2 / b_adapt=1 / b_bias=0 / direct=3 / weightb=1 / open_gop=0 / weightp=2 / keyint=250 / keyint_min=25 / scenecut=40 / intra_refresh=0 / rc_lookahead=50 / rc=2pass / mbtree=1 / bitrate=11500 / ratetol=1.0 / qcomp=0.60 / qpmin=0 / qpmax=69 / qpstep=4 / cplxblur=20.0 / qblur=0.5 / vbv_maxrate=31250 / vbv_bufsize=31250 / nal_hrd=none / filler=0 / ip_ratio=1.40 / aq=1:1.00
  26. Language                                 : Chinese
  27. Default                                  : Yes
  28. Forced                                   : No

  29. Audio
  30. ID                                       : 2
  31. Format                                   : DTS
  32. Format/Info                              : Digital Theater Systems
  33. Codec ID                                 : A_DTS
  34. Duration                                 : 1 h 34 min
  35. Bit rate mode                            : Constant
  36. Bit rate                                 : 1 509 kb/s
  37. Channel(s)                               : 6 channels
  38. Channel layout                           : C L R Ls Rs LFE
  39. Sampling rate                            : 48.0 kHz
  40. Frame rate                               : 93.750 FPS (512 SPF)
  41. Bit depth                                : 16 bits
  42. Compression mode                         : Lossy
  43. Stream size                              : 1 021 MiB (12%)
  44. Title                                    : Gift.From.Heaven.1989.CHINESE.1080p.BluRay.x264.DTS-FGT
  45. Language                                 : Chinese
  46. Default                                  : Yes
  47. Forced                                   : No

  48. Text
  49. ID                                       : 3
  50. Format                                   : UTF-8
  51. Codec ID                                 : S_TEXT/UTF8
  52. Codec ID/Info                            : UTF-8 Plain Text
  53. Duration                                 : 1 h 29 min
  54. Bit rate                                 : 61 b/s
  55. Count of elements                        : 1479
  56. Stream size                              : 40.5 KiB (0%)
  57. Language                                 : English
  58. Default                                  : Yes
  59. Forced                                   : No

  60. Menu
  61. 00:00:00.000                             : en:Chapter 01
  62. 00:07:17.333                             : en:Chapter 02
  63. 00:19:12.541                             : en:Chapter 03
  64. 00:26:44.625                             : en:Chapter 04
  65. 00:35:50.708                             : en:Chapter 05
  66. 00:44:08.166                             : en:Chapter 06
  67. 00:50:39.625                             : en:Chapter 07
  68. 01:02:05.750                             : en:Chapter 08
  69. 01:07:54.458                             : en:Chapter 09
  70. 01:14:19.833                             : en:Chapter 10
  71. 01:21:45.500                             : en:Chapter 11
  72. 01:27:21.875                             : en:Chapter 12
复制代码

打工狂想曲 Gift.From.Heaven.1989.CHINESE.1080p.BluRay.x264.DTS-FGT 8.60GB-2.png 打工狂想曲 Gift.From.Heaven.1989.CHINESE.1080p.BluRay.x264.DTS-FGT 8.60GB-3.png 打工狂想曲 Gift.From.Heaven.1989.CHINESE.1080p.BluRay.x264.DTS-FGT 8.60GB-4.png







回复

使用道具 举报

蓝光币
641
发表于 2020-4-29 09:17:32 | 显示全部楼层
谢谢楼主无私分享。
回复 支持 反对

使用道具 举报

懒得打字嘛,点击右侧快捷回复 【右侧内容,后台自定义】
您需要登录后才可以回帖 登录 | 立即加入

本版积分规则

Archiver|小黑屋| 蓝光电影网 |网站地图

Copyright © 2021 Comsenz Inc. Powered by 蓝光电影网

蓝光电影网

本站内容由用户自主分享和转载自互联网,转载目的在于传递更多信息,并不代表本网赞同其观点和对其真实性负责。

如有侵权、违反国家法律政策行为,请联系我们,我们会第一时间及时清除和处理!

举报反馈邮箱:[email protected]

快速回复 返回顶部 返回列表