找回密码

蓝光电影网

查看: 815|回复: 5

[动作] 野兽 The.Beast.2019.KOREAN.1080p.BluRay.x264.DTS-FGT 11.94GB

[复制链接]
蓝光币
515
发表于 2020-4-28 23:54:43 | 显示全部楼层 |阅读模式
p2558053346.jpg

译  名 野兽 / The Beast / 缉凶对决(台) / 韩国版《警界争雄》
片  名 ???
年  代 2019
产  地 韩国
类  别 行动 / 犯罪
语  言 韩语
上映日期 2019-06-26(韩国)
IMDb评分  5.9/10 from 302 users
IMDb链接  https://www.imdb.com/title/tt10530286
豆瓣评分 6.8/10 from 5125 users
豆瓣链接 https://movie.douban.com/subject/30347029/
片  长 130分钟
导  演 李正浩 Jeong-ho Lee
编  剧 李正浩 Jeong-ho Lee
主  演 李星民 Sung-min Lee
       刘在明 Jae-myung Yoo
       全慧珍 Hye-jin Jeon
       崔丹尼尔 Daniel Choi
       金浩贞 Ho-jung Kim
       金炳春 Byeong-chun Kim
       金恩德 Joon-won Jeong
       李书焕 Seo-hwan Lee
       玉子妍 Ja-yeon Ok
       李尚熙 Sang-hee Lee
       韩圭源 Kyu-won Han


标  签 韩国 | 犯罪 | 悬疑 | 人性 | 行动 | 惊悚 | 2019 | 暴力

简  介  

  影片报告为了侦破震动全国的杀人大案,发生在两个差人之间的一场对决。
  1. Video
  2. ID                                       : 1
  3. Format                                   : AVC
  4. Format/Info                              : Advanced Video Codec
  5. Format profile                           : [email protected]
  6. Format settings                          : CABAC / 4 Ref Frames
  7. Format settings, CABAC                   : Yes
  8. Format settings, Reference frames        : 4 frames
  9. Codec ID                                 : V_MPEG4/ISO/AVC
  10. Duration                                 : 2 h 11 min
  11. Bit rate                                 : 11.5 Mb/s
  12. Width                                    : 1 920 pixels
  13. Height                                   : 804 pixels
  14. Display aspect ratio                     : 2.40:1
  15. Frame rate mode                          : Constant
  16. Frame rate                               : 24.000 FPS
  17. Color space                              : YUV
  18. Chroma subsampling                       : 4:2:0
  19. Bit depth                                : 8 bits
  20. Scan type                                : Progressive
  21. Bits/(Pixel*Frame)                       : 0.310
  22. Stream size                              : 10.6 GiB (88%)
  23. Title                                    : The.Beast.2019.KOREAN.1080p.BluRay.x264.DTS-FGT
  24. Writing library                          : x264 core 148 r2748 97eaef2
  25. Encoding settings                        : cabac=1 / ref=4 / deblock=1:-2:-2 / analyse=0x3:0x113 / me=umh / subme=9 / psy=1 / psy_rd=1.00:0.15 / mixed_ref=1 / me_range=16 / chroma_me=1 / trellis=2 / 8x8dct=1 / cqm=0 / deadzone=21,11 / fast_pskip=1 / chroma_qp_offset=-3 / threads=24 / lookahead_threads=3 / sliced_threads=0 / nr=0 / decimate=1 / interlaced=0 / bluray_compat=0 / constrained_intra=0 / bframes=3 / b_pyramid=2 / b_adapt=1 / b_bias=0 / direct=3 / weightb=1 / open_gop=0 / weightp=2 / keyint=250 / keyint_min=25 / scenecut=40 / intra_refresh=0 / rc_lookahead=50 / rc=2pass / mbtree=1 / bitrate=11500 / ratetol=1.0 / qcomp=0.60 / qpmin=0 / qpmax=69 / qpstep=4 / cplxblur=20.0 / qblur=0.5 / vbv_maxrate=31250 / vbv_bufsize=31250 / nal_hrd=none / filler=0 / ip_ratio=1.40 / aq=1:1.00
  26. Language                                 : Korean
  27. Default                                  : Yes
  28. Forced                                   : No

  29. Audio
  30. ID                                       : 2
  31. Format                                   : DTS
  32. Format/Info                              : Digital Theater Systems
  33. Codec ID                                 : A_DTS
  34. Duration                                 : 2 h 11 min
  35. Bit rate mode                            : Constant
  36. Bit rate                                 : 1 509 kb/s
  37. Channel(s)                               : 6 channels
  38. Channel layout                           : C L R Ls Rs LFE
  39. Sampling rate                            : 48.0 kHz
  40. Frame rate                               : 93.750 FPS (512 SPF)
  41. Bit depth                                : 24 bits
  42. Compression mode                         : Lossy
  43. Stream size                              : 1.39 GiB (12%)
  44. Title                                    : The.Beast.2019.KOREAN.1080p.BluRay.x264.DTS-FGT
  45. Language                                 : Korean
  46. Default                                  : Yes
  47. Forced                                   : No

  48. Text
  49. ID                                       : 3
  50. Format                                   : UTF-8
  51. Codec ID                                 : S_TEXT/UTF8
  52. Codec ID/Info                            : UTF-8 Plain Text
  53. Duration                                 : 2 h 4 min
  54. Bit rate                                 : 44 b/s
  55. Count of elements                        : 1248
  56. Stream size                              : 40.3 KiB (0%)
  57. Language                                 : English
  58. Default                                  : Yes
  59. Forced                                   : No

  60. Menu
  61. 00:00:00.000                             : en:Chapter 01
  62. 00:06:08.542                             : en:Chapter 02
  63. 00:11:17.833                             : en:Chapter 03
  64. 00:16:53.042                             : en:Chapter 04
  65. 00:23:42.542                             : en:Chapter 05
  66. 00:30:15.000                             : en:Chapter 06
  67. 00:37:09.250                             : en:Chapter 07
  68. 00:44:10.917                             : en:Chapter 08
  69. 00:50:40.458                             : en:Chapter 09
  70. 00:55:56.000                             : en:Chapter 10
  71. 01:01:49.792                             : en:Chapter 11
  72. 01:06:27.083                             : en:Chapter 12
  73. 01:12:48.750                             : en:Chapter 13
  74. 01:18:11.000                             : en:Chapter 14
  75. 01:23:55.042                             : en:Chapter 15
  76. 01:28:18.333                             : en:Chapter 16
  77. 01:33:41.958                             : en:Chapter 17
  78. 01:40:31.500                             : en:Chapter 18
  79. 01:45:29.833                             : en:Chapter 19
  80. 01:50:53.083                             : en:Chapter 20
  81. 01:56:02.625                             : en:Chapter 21
  82. 02:03:50.500                             : en:Chapter 22
  83. 02:06:45.750                             : en:Chapter 23
复制代码

野兽 The.Beast.2019.KOREAN.1080p.BluRay.x264.DTS-FGT 11.94GB-1.png 野兽 The.Beast.2019.KOREAN.1080p.BluRay.x264.DTS-FGT 11.94GB-2.png 野兽 The.Beast.2019.KOREAN.1080p.BluRay.x264.DTS-FGT 11.94GB-3.png







回复

使用道具 举报

懒得打字嘛,点击右侧快捷回复 【右侧内容,后台自定义】
您需要登录后才可以回帖 登录 | 立即加入

本版积分规则

Archiver|小黑屋| 蓝光电影网 |网站地图

Copyright © 2021 Comsenz Inc. Powered by 蓝光电影网

蓝光电影网

本站内容由用户自主分享和转载自互联网,转载目的在于传递更多信息,并不代表本网赞同其观点和对其真实性负责。

如有侵权、违反国家法律政策行为,请联系我们,我们会第一时间及时清除和处理!

举报反馈邮箱:[email protected]

快速回复 返回顶部 返回列表