找回密码

蓝光电影网

查看: 305|回复: 4

[剧情] 千金傲游记/夏佩的奇妙冒险 Sharpays.Fabulous.Adventure.2011.1080p.BluRay.x264.DTS-FGT 8.14GB

[复制链接]
蓝光币
519
发表于 2020-4-28 23:55:59 | 显示全部楼层 |阅读模式
千金傲游记/夏佩的奇妙冒险 Sharpays.Fabulous.Adventure.2011.1080p.BluRay.x264.DTS-FGT 8.14GB-1.png

译  名 千金傲游记 / 夏佩的奇妙冒险
片  名 Sharpay's Fabulous Adventure
年  代 2011
产  地 美国
类  别 剧情 / 笑剧 / 家庭
语  言 英语
上映日期 2011
IMDb评分  4.7/10 from 5624 users
IMDb链接  https://www.imdb.com/title/tt1629440
豆瓣评分 5.9/10 from 1986 users
豆瓣链接 https://movie.douban.com/subject/4849735/
片  长 90分钟
导  演 迈克尔·莱拜克 Michael Lembeck
编  剧 Robert Horn / Peter Barsocchini
主  演 阿什丽·提斯代尔 Ashley Tisdale
       Austin Butler
       约翰·古德曼 John Goodman


标  签 青春 | 美国 | 歌舞 | 笑剧 | 美国电影 | AshleyTisdale | Disney | 2011

简  介  

  《歌舞青春》中的Sharpay实现了她的胡想——在被星探发现后与她的宠物狗Boi成长到了纽约。可是在纽约,Sharpay很快发现在纽约想要实现她的胡想并不如她所设想的那样轻易,假如想要成功,她必必要下降对自己的期待值
  1. Video
  2. ID                                       : 1
  3. Format                                   : AVC
  4. Format/Info                              : Advanced Video Codec
  5. Format profile                           : [email protected]
  6. Format settings                          : CABAC / 4 Ref Frames
  7. Format settings, CABAC                   : Yes
  8. Format settings, Reference frames        : 4 frames
  9. Codec ID                                 : V_MPEG4/ISO/AVC
  10. Duration                                 : 1 h 29 min
  11. Bit rate                                 : 11.5 Mb/s
  12. Width                                    : 1 920 pixels
  13. Height                                   : 1 080 pixels
  14. Display aspect ratio                     : 16:9
  15. Frame rate mode                          : Constant
  16. Frame rate                               : 23.976 (24000/1001/189150) FPS
  17. Color space                              : YUV
  18. Chroma subsampling                       : 4:2:0
  19. Bit depth                                : 8 bits
  20. Scan type                                : Progressive
  21. Bits/(Pixel*Frame)                       : 0.231
  22. Stream size                              : 7.20 GiB (88%)
  23. Title                                    : Sharpays.Fabulous.Adventure.2011.1080p.BluRay.x264.DTS-FGT
  24. Writing library                          : x264 core 148 r2748 97eaef2
  25. Encoding settings                        : cabac=1 / ref=4 / deblock=1:-2:-2 / analyse=0x3:0x113 / me=umh / subme=9 / psy=1 / psy_rd=1.00:0.15 / mixed_ref=1 / me_range=16 / chroma_me=1 / trellis=2 / 8x8dct=1 / cqm=0 / deadzone=21,11 / fast_pskip=1 / chroma_qp_offset=-3 / threads=24 / lookahead_threads=3 / sliced_threads=0 / nr=0 / decimate=1 / interlaced=0 / bluray_compat=0 / constrained_intra=0 / bframes=3 / b_pyramid=2 / b_adapt=1 / b_bias=0 / direct=3 / weightb=1 / open_gop=0 / weightp=2 / keyint=250 / keyint_min=25 / scenecut=40 / intra_refresh=0 / rc_lookahead=50 / rc=2pass / mbtree=1 / bitrate=11500 / ratetol=1.0 / qcomp=0.60 / qpmin=0 / qpmax=69 / qpstep=4 / cplxblur=20.0 / qblur=0.5 / vbv_maxrate=31250 / vbv_bufsize=31250 / nal_hrd=none / filler=0 / ip_ratio=1.40 / aq=1:1.00
  26. Language                                 : English
  27. Default                                  : Yes
  28. Forced                                   : No

  29. Audio
  30. ID                                       : 2
  31. Format                                   : DTS
  32. Format/Info                              : Digital Theater Systems
  33. Codec ID                                 : A_DTS
  34. Duration                                 : 1 h 29 min
  35. Bit rate mode                            : Constant
  36. Bit rate                                 : 1 509 kb/s
  37. Channel(s)                               : 6 channels
  38. Channel layout                           : C L R Ls Rs LFE
  39. Sampling rate                            : 48.0 kHz
  40. Frame rate                               : 93.750 FPS (512 SPF)
  41. Bit depth                                : 24 bits
  42. Compression mode                         : Lossy
  43. Stream size                              : 967 MiB (12%)
  44. Title                                    : Sharpays.Fabulous.Adventure.2011.1080p.BluRay.x264.DTS-FGT
  45. Language                                 : English
  46. Default                                  : Yes
  47. Forced                                   : No

  48. Text
  49. ID                                       : 3
  50. Format                                   : UTF-8
  51. Codec ID                                 : S_TEXT/UTF8
  52. Codec ID/Info                            : UTF-8 Plain Text
  53. Duration                                 : 1 h 29 min
  54. Bit rate                                 : 73 b/s
  55. Count of elements                        : 1335
  56. Stream size                              : 48.1 KiB (0%)
  57. Language                                 : English
  58. Default                                  : Yes
  59. Forced                                   : No

  60. Menu
  61. 00:00:00.000                             : en:Main Title / Shine
  62. 00:03:11.775                             : en:A Chance Meeting
  63. 00:06:04.030                             : en:Team Sharpay
  64. 00:09:44.334                             : en:New York City
  65. 00:14:24.280                             : en:The Studio
  66. 00:18:42.580                             : en:Chasng A Dream
  67. 00:21:08.434                             : en:Taking In The City
  68. 00:23:54.516                             : en:A Misunderstanding
  69. 00:27:48.584                             : en:Unexpected Competition
  70. 00:38:13.041                             : en:Rehearsal
  71. 00:47:18.377                             : en:Video Chat
  72. 00:49:28.674                             : en:BFFs
  73. 00:56:58.540                             : en:Puppy Love
  74. 01:04:15.393                             : en:A Fair Fight
  75. 01:09:07.101                             : en:Forming An Alliance
  76. 01:11:56.229                             : en:A Different Shade of Amber
  77. 01:17:22.179                             : en:The Replacement
  78. 01:24:32.317                             : en:A Girl\'s Best Friend
  79. 01:28:38.396                             : en:End Credits
复制代码

千金傲游记/夏佩的奇妙冒险 Sharpays.Fabulous.Adventure.2011.1080p.BluRay.x264.DTS-FGT 8.14GB-2.png 千金傲游记/夏佩的奇妙冒险 Sharpays.Fabulous.Adventure.2011.1080p.BluRay.x264.DTS-FGT 8.14GB-3.png 千金傲游记/夏佩的奇妙冒险 Sharpays.Fabulous.Adventure.2011.1080p.BluRay.x264.DTS-FGT 8.14GB-4.png







回复

使用道具 举报

蓝光币
792
发表于 2020-4-29 02:17:32 | 显示全部楼层

楼主太厉害了!楼主,电影应该很好看我觉得蓝光电影网真是个好地方!
回复 支持 反对

使用道具 举报

蓝光币
384
发表于 2020-4-29 11:37:04 | 显示全部楼层

我看不错噢 谢谢楼主!蓝光电影网越来越好!
回复 支持 反对

使用道具 举报

懒得打字嘛,点击右侧快捷回复 【右侧内容,后台自定义】
您需要登录后才可以回帖 登录 | 立即加入

本版积分规则

Archiver|小黑屋| 蓝光电影网 |网站地图

Copyright © 2021 Comsenz Inc. Powered by 蓝光电影网

蓝光电影网

本站内容由用户自主分享和转载自互联网,转载目的在于传递更多信息,并不代表本网赞同其观点和对其真实性负责。

如有侵权、违反国家法律政策行为,请联系我们,我们会第一时间及时清除和处理!

举报反馈邮箱:[email protected]

快速回复 返回顶部 返回列表