找回密码

蓝光电影网

查看: 307|回复: 1

[剧情] 快枪手 My.Gun.Is.Quick.1957.1080p.BluRay.x264.DTS-FGT 8.27GB

[复制链接]
蓝光币
515
发表于 2020-4-28 23:57:43 | 显示全部楼层 |阅读模式
快枪手 My.Gun.Is.Quick.1957.1080p.BluRay.x264.DTS-FGT 8.27GB-1.png

译  名 快枪手
片  名 My Gun Is Quick
年  代 1957
产  地 美国
类  别 黑色电影
语  言 英语
上映日期 1957-08
IMDb评分  6.2/10 from 475 users
IMDb链接  https://www.imdb.com/title/tt0050737
豆瓣评分 0/10 from 0 users
豆瓣链接 https://movie.douban.com/subject/25775386/
导  演 Phil Victor / George White
编  剧 Mickey Spillane (novel) / Richard Collins
主  演 Robert Bray
       惠特尼·布莱克 Whitney Blake
       Patricia Donahue


标  签 1950s | 美国电影 | 美国 | noir | 50s | 黑色电影

简  介  

  A private detective helps a prostitute being assaulted, and notices that she is wearing a very unique ring. She is later found murdered and there is no trace of the ring, which turns out to be part of a cache of jewelry stolen by the Nazis during World War II and smuggled out of France after the wary by an American army colonel. The private eye decides to try to find the ring, is hired by the former colonel to find the rest of the jewels, and runs up against a murderous French gang that is also looking for the jewels.
  1. Video
  2. ID                                       : 1
  3. Format                                   : AVC
  4. Format/Info                              : Advanced Video Codec
  5. Format profile                           : [email protected]
  6. Format settings                          : CABAC / 4 Ref Frames
  7. Format settings, CABAC                   : Yes
  8. Format settings, Reference frames        : 4 frames
  9. Codec ID                                 : V_MPEG4/ISO/AVC
  10. Duration                                 : 1 h 30 min
  11. Bit rate                                 : 11.5 Mb/s
  12. Width                                    : 1 920 pixels
  13. Height                                   : 1 036 pixels
  14. Display aspect ratio                     : 1.85:1
  15. Frame rate mode                          : Constant
  16. Frame rate                               : 23.976 (24000/1001/189150) FPS
  17. Color space                              : YUV
  18. Chroma subsampling                       : 4:2:0
  19. Bit depth                                : 8 bits
  20. Scan type                                : Progressive
  21. Bits/(Pixel*Frame)                       : 0.241
  22. Stream size                              : 7.31 GiB (88%)
  23. Title                                    : My.Gun.Is.Quick.1957.1080p.BluRay.x264.DTS-FGT
  24. Writing library                          : x264 core 148 r2748 97eaef2
  25. Encoding settings                        : cabac=1 / ref=4 / deblock=1:-2:-2 / analyse=0x3:0x113 / me=umh / subme=9 / psy=1 / psy_rd=1.00:0.15 / mixed_ref=1 / me_range=16 / chroma_me=1 / trellis=2 / 8x8dct=1 / cqm=0 / deadzone=21,11 / fast_pskip=1 / chroma_qp_offset=-3 / threads=24 / lookahead_threads=3 / sliced_threads=0 / nr=0 / decimate=1 / interlaced=0 / bluray_compat=0 / constrained_intra=0 / bframes=3 / b_pyramid=2 / b_adapt=1 / b_bias=0 / direct=3 / weightb=1 / open_gop=0 / weightp=2 / keyint=250 / keyint_min=25 / scenecut=40 / intra_refresh=0 / rc_lookahead=50 / rc=2pass / mbtree=1 / bitrate=11500 / ratetol=1.0 / qcomp=0.60 / qpmin=0 / qpmax=69 / qpstep=4 / cplxblur=20.0 / qblur=0.5 / vbv_maxrate=31250 / vbv_bufsize=31250 / nal_hrd=none / filler=0 / ip_ratio=1.40 / aq=1:1.00
  26. Language                                 : English
  27. Default                                  : Yes
  28. Forced                                   : No

  29. Audio
  30. ID                                       : 2
  31. Format                                   : DTS
  32. Format/Info                              : Digital Theater Systems
  33. Codec ID                                 : A_DTS
  34. Duration                                 : 1 h 30 min
  35. Bit rate mode                            : Constant
  36. Bit rate                                 : 1 509 kb/s
  37. Channel(s)                               : 2 channels
  38. Channel layout                           : L R
  39. Sampling rate                            : 48.0 kHz
  40. Frame rate                               : 93.750 FPS (512 SPF)
  41. Bit depth                                : 16 bits
  42. Compression mode                         : Lossy
  43. Stream size                              : 982 MiB (12%)
  44. Title                                    : My.Gun.Is.Quick.1957.1080p.BluRay.x264.DTS-FGT
  45. Language                                 : English
  46. Default                                  : Yes
  47. Forced                                   : No

  48. Text
  49. ID                                       : 3
  50. Format                                   : UTF-8
  51. Codec ID                                 : S_TEXT/UTF8
  52. Codec ID/Info                            : UTF-8 Plain Text
  53. Duration                                 : 1 h 28 min
  54. Bit rate                                 : 54 b/s
  55. Count of elements                        : 1107
  56. Stream size                              : 35.2 KiB (0%)
  57. Language                                 : English
  58. Default                                  : Yes
  59. Forced                                   : No

  60. Menu
  61. 00:00:00.000                             : en:Chapter 01
  62. 00:08:03.483                             : en:Chapter 02
  63. 00:16:18.978                             : en:Chapter 03
  64. 00:26:45.145                             : en:Chapter 04
  65. 00:39:25.905                             : en:Chapter 05
  66. 00:53:46.181                             : en:Chapter 06
  67. 01:08:57.675                             : en:Chapter 07
  68. 01:21:28.425                             : en:Chapter 08
复制代码

快枪手 My.Gun.Is.Quick.1957.1080p.BluRay.x264.DTS-FGT 8.27GB-2.png 快枪手 My.Gun.Is.Quick.1957.1080p.BluRay.x264.DTS-FGT 8.27GB-3.png 快枪手 My.Gun.Is.Quick.1957.1080p.BluRay.x264.DTS-FGT 8.27GB-4.png







回复

使用道具 举报

蓝光币
1506
发表于 2020-4-29 17:56:17 | 显示全部楼层
楼主发贴辛苦了,谢谢楼主分享!我觉得蓝光电影网是注册对了!
回复 支持 反对

使用道具 举报

懒得打字嘛,点击右侧快捷回复 【右侧内容,后台自定义】
您需要登录后才可以回帖 登录 | 立即加入

本版积分规则

Archiver|小黑屋| 蓝光电影网 |网站地图

Copyright © 2021 Comsenz Inc. Powered by 蓝光电影网

蓝光电影网

本站内容由用户自主分享和转载自互联网,转载目的在于传递更多信息,并不代表本网赞同其观点和对其真实性负责。

如有侵权、违反国家法律政策行为,请联系我们,我们会第一时间及时清除和处理!

举报反馈邮箱:[email protected]

快速回复 返回顶部 返回列表