找回密码

蓝光电影网

查看: 281|回复: 0

[惊悚] 切勿离家/千万别出门 Dont.Leave.Home.2018.1080p.AMZN.WEBRip.DD5.1.x264-NTG 5.24GB

[复制链接]
蓝光币
515
发表于 2020-4-29 21:54:42 | 显示全部楼层 |阅读模式
p2516398432.jpg

译  名 切勿离家 / 万万别出门
片  名 Don't Leave Home
年  代 2018
产  地 美国
类  别 惊悚
语  言 英语
上映日期 2018-03-16(美国)
IMDb评分  5.0/10 from 1004 users
IMDb链接  https://www.imdb.com/title/tt6842126
豆瓣评分 0/10 from 0 users
豆瓣链接 https://movie.douban.com/subject/30170851/
片  长 86分钟
导  演 Michael Tully
编  剧 Michael Tully
主  演 海伦娜·布林 Helena Bereen
       安娜·玛格丽特·霍利曼 Anna Margaret Hollyman
       David McSavage
       莱勒·罗迪 Lalor Roddy
       Karrie Cox
       Mark Lawrence


标  签 惊悚 | 可骇 | 魔幻 | 美国电影 | 悬疑 | 电影 | 爱尔兰 | 二星

简  介  

  An American artist's obsession with a disturbing urban legend leads her to an investigation of the story's origins at the crumbling estate of a reclusive painter in Ireland.
  1. Video
  2. ID                                       : 1
  3. Format                                   : AVC
  4. Format/Info                              : Advanced Video Codec
  5. Format profile                           : [email protected]
  6. Format settings                          : CABAC / 4 Ref Frames
  7. Format settings, CABAC                   : Yes
  8. Format settings, Reference frames        : 4 frames
  9. Codec ID                                 : V_MPEG4/ISO/AVC
  10. Duration                                 : 1 h 26 min
  11. Bit rate mode                            : Constant
  12. Bit rate                                 : 8 291 kb/s
  13. Nominal bit rate                         : 10 000 kb/s
  14. Width                                    : 1 920 pixels
  15. Height                                   : 1 080 pixels
  16. Display aspect ratio                     : 16:9
  17. Frame rate mode                          : Constant
  18. Frame rate                               : 23.976 (24000/1001/189150) FPS
  19. Color space                              : YUV
  20. Chroma subsampling                       : 4:2:0
  21. Bit depth                                : 8 bits
  22. Scan type                                : Progressive
  23. Bits/(Pixel*Frame)                       : 0.167
  24. Stream size                              : 5.01 GiB (96%)
  25. Default                                  : Yes
  26. Forced                                   : No
  27. Color range                              : Limited
  28. Color primaries                          : BT.709
  29. Transfer characteristics                 : BT.709
  30. Matrix coefficients                      : BT.709

  31. Audio
  32. ID                                       : 2
  33. Format                                   : AC-3
  34. Format/Info                              : Audio Coding 3
  35. Commercial name                          : Dolby Digital
  36. Codec ID                                 : A_AC3
  37. Duration                                 : 1 h 26 min
  38. Bit rate mode                            : Constant
  39. Bit rate                                 : 384 kb/s
  40. Channel(s)                               : 6 channels
  41. Channel layout                           : L R C LFE Ls Rs
  42. Sampling rate                            : 48.0 kHz
  43. Frame rate                               : 31.250 FPS (1536 SPF)
  44. Bit depth                                : 16 bits
  45. Compression mode                         : Lossy
  46. Stream size                              : 238 MiB (4%)
  47. Language                                 : English
  48. Service kind                             : Complete Main
  49. Default                                  : Yes
  50. Forced                                   : No

  51. Text #1
  52. ID                                       : 3
  53. Format                                   : UTF-8
  54. Codec ID                                 : S_TEXT/UTF8
  55. Codec ID/Info                            : UTF-8 Plain Text
  56. Duration                                 : 1 h 22 min
  57. Bit rate                                 : 25 b/s
  58. Count of elements                        : 514
  59. Stream size                              : 15.2 KiB (0%)
  60. Language                                 : English
  61. Default                                  : No
  62. Forced                                   : No

  63. Text #2
  64. ID                                       : 4
  65. Format                                   : UTF-8
  66. Codec ID                                 : S_TEXT/UTF8
  67. Codec ID/Info                            : UTF-8 Plain Text
  68. Duration                                 : 1 h 22 min
  69. Bit rate                                 : 28 b/s
  70. Count of elements                        : 622
  71. Stream size                              : 17.1 KiB (0%)
  72. Title                                    : SDH
  73. Language                                 : English
  74. Default                                  : No
  75. Forced                                   : No

  76. Menu
  77. 00:00:00.000                             : en:1
  78. 00:10:23.613                             : en:2
  79. 00:20:24.046                             : en:3
  80. 00:30:13.969                             : en:4
  81. 00:39:34.320                             : en:5
  82. 00:50:39.276                             : en:6
  83. 01:00:53.390                             : en:7
  84. 01:10:51.112                             : en:8
  85. 01:23:53.435                             : en:9
复制代码

切勿离家/万万别出门 Dont.Leave.Home.2018.1080p.AMZN.WEBRip.DD5.1.x264-NTG 5.24GB-1.png 切勿离家/万万别出门 Dont.Leave.Home.2018.1080p.AMZN.WEBRip.DD5.1.x264-NTG 5.24GB-2.png 切勿离家/万万别出门 Dont.Leave.Home.2018.1080p.AMZN.WEBRip.DD5.1.x264-NTG 5.24GB-3.png







回复

使用道具 举报

懒得打字嘛,点击右侧快捷回复 【右侧内容,后台自定义】
您需要登录后才可以回帖 登录 | 立即加入

本版积分规则

Archiver|小黑屋| 蓝光电影网 |网站地图

Copyright © 2021 Comsenz Inc. Powered by 蓝光电影网

蓝光电影网

本站内容由用户自主分享和转载自互联网,转载目的在于传递更多信息,并不代表本网赞同其观点和对其真实性负责。

如有侵权、违反国家法律政策行为,请联系我们,我们会第一时间及时清除和处理!

举报反馈邮箱:[email protected]

快速回复 返回顶部 返回列表