找回密码

蓝光电影网

查看: 823|回复: 4

[动画] 苍穹的法芙娜 天堂和地球 Fafner.Heaven.and.Earth.2010.1080p.BluRay.x264-RedBlade 4.36GB

[复制链接]
蓝光币
511
发表于 2020-4-30 10:49:38 | 显示全部楼层 |阅读模式
天穹的法芙娜 天堂和地球 Fafner.Heaven.and.Earth.2010.1080p.BluRay.x264-RedBlade 4.36GB-1.png

译  名 天穹的法芙娜 天堂和地球 / Dead Agressor / 天穹之法芙娜 HEAVEN AND EARTH
片  名 蒼穹のファフナー Heaven and Earth
年  代 2010
产  地 日本
类  别 动画
语  言 日语
上映日期 2010-12-25(日本)
IMDb评分  6.1/10 from 50 users
IMDb链接  https://www.imdb.com/title/tt1794963
豆瓣评分 8.2/10 from 933 users
豆瓣链接 https://movie.douban.com/subject/10342941/
片  长 92分钟
导  演 铃木利正 Toshimasa Suzuki / 羽原信义 Nobuyoshi Habara
编  剧 冲方丁 Tow Ubukata
主  演 石井真 Makoto Ishii
       木村良平 Ryohei Kimura
       松本真里香 Marika Matsumoto
       田中正彦 Masahiko Tanaka
       小林沙苗 Sanae Kobayashi
       佐佐木望 Nozomu Sasaki
       白石稔 Minoru Shiraishi
       新井里美 Satomi Arai
       白石凉子 Ryoko Shiraishi
       梶裕贵 Y?ki Kaji
       福圆美里 Misato Fukuen
       京田尚子 Hisako Ky?da
       土师孝也 Takaya Hashi
       筱原惠美 Emi Shinohara
       野上尤加奈 Yukana Nogami
       石川静 Shizuka Ishikawa
       葛城七穗 Nanaho Katsuragi
       高濑右光 Akimitsu Takase
       寺杣昌纪 Masaki Terasoma
       远藤绫 Aya End?
       丰口惠美 Megumi Toyoguchi
       诸星堇 Sumire Morohoshi
       佐藤健辅 Kensuke Satou
       喜安浩平 Kohei Kiyasu


标  签 动画 | 戏院版 | 日本动画 | 冲方丁 | 日本 | 天穹之fafner | XEBEC | アニメ

简  介  

  浮于日本一隅的战争安好的龙宫岛——一座与日本外乡隔断的孤岛人们终年过着战争、恬静的日子。
  “你……在那边……吗?”
  有一天,一个悠远魑魅的声音传来,紧接着美丽而又不祥的生命体fostom从天穹之间袭来。
  实在早在29年前,龙宫岛甚至日本就已不存在于地球的邦畿之上,这一切的谜团随着危险生物Festom的到来逐步展开。一切的伪装被卸下,烽火起头熄灭,这里将不再安静……
  龙宫岛上的少年真壁一骑在Fafner驾驶员丧生的情况下,无法的踏上了驾驶伟人Fafner庇护这块乐园的旅途。
  是果断庇护最初的乐园?还是懦弱的回避现实?
  一骑紧握好友总士的手,起头了不知尽头的战役之路……
  ※STAFF※
  原作 : XEBEC
  企画 : 大月俊伦·下舆志直
  文芸统括 : 冲方丁
  故事组成 : 山野辺一记
  人物设定: 平井久司
  色彩设定 : 関本美津子
  声响监视 : 三间雅文
  美术监视 : 小山俊久
  撮影监视 : 広瀬成功
  3D监视 : 本间润树
  音楽 : 斉藤恒芳
  建造人 : 中西豪千野孝敏能戸隆
  助监视 : 山冈信一
  监视 : 羽原信义
  ※CAST※
  真壁一骑-------石井真
  远见真矢-------松本まりか
  皆城総士-------喜安浩平
  真壁史彦-------田中正彦
  皆城乙姫-------仲西环
  羽佐间翔子-------松来未祐
  春日井甲洋-------入野自在
  要咲良-------新井里美
  近藤剣司-------白石稔
  小楯卫-------斎贺みつき
  1. Video
  2. ID                                       : 1
  3. Format                                   : AVC
  4. Format/Info                              : Advanced Video Codec
  5. Format profile                           : [email protected]
  6. Format settings                          : CABAC / 4 Ref Frames
  7. Format settings, CABAC                   : Yes
  8. Format settings, Reference frames        : 4 frames
  9. Codec ID                                 : V_MPEG4/ISO/AVC
  10. Duration                                 : 1 h 32 min
  11. Bit rate                                 : 5 843 kb/s
  12. Width                                    : 1 920 pixels
  13. Height                                   : 1 080 pixels
  14. Display aspect ratio                     : 16:9
  15. Frame rate mode                          : Constant
  16. Frame rate                               : 23.976 (24000/1001/189150) FPS
  17. Color space                              : YUV
  18. Chroma subsampling                       : 4:2:0
  19. Bit depth                                : 8 bits
  20. Scan type                                : Progressive
  21. Bits/(Pixel*Frame)                       : 0.118
  22. Stream size                              : 3.70 GiB (85%)
  23. Writing library                          : x264 core 129 r2230 1cffe9f
  24. Encoding settings                        : cabac=1 / ref=4 / deblock=1:0:0 / analyse=0x3:0x2 / me=umh / subme=7 / psy=1 / psy_rd=1.00:0.00 / mixed_ref=1 / me_range=16 / chroma_me=1 / trellis=1 / 8x8dct=1 / cqm=0 / deadzone=21,11 / fast_pskip=1 / chroma_qp_offset=-2 / threads=6 / lookahead_threads=1 / sliced_threads=0 / nr=0 / decimate=1 / interlaced=0 / bluray_compat=0 / constrained_intra=0 / bframes=3 / b_pyramid=2 / b_adapt=1 / b_bias=0 / direct=1 / weightb=0 / open_gop=0 / weightp=2 / keyint=240 / keyint_min=23 / scenecut=40 / intra_refresh=0 / rc=2pass / mbtree=0 / bitrate=5843 / ratetol=1.0 / qcomp=0.60 / qpmin=10 / qpmax=51 / qpstep=4 / cplxblur=20.0 / qblur=0.5 / ip_ratio=1.40 / pb_ratio=1.30 / aq=1:1.00
  25. Language                                 : English
  26. Default                                  : Yes
  27. Forced                                   : No

  28. Audio #1
  29. ID                                       : 2
  30. Format                                   : AC-3
  31. Format/Info                              : Audio Coding 3
  32. Commercial name                          : Dolby Digital
  33. Codec ID                                 : A_AC3
  34. Duration                                 : 1 h 32 min
  35. Bit rate mode                            : Constant
  36. Bit rate                                 : 448 kb/s
  37. Channel(s)                               : 6 channels
  38. Channel layout                           : L R C LFE Ls Rs
  39. Sampling rate                            : 48.0 kHz
  40. Frame rate                               : 31.250 FPS (1536 SPF)
  41. Bit depth                                : 16 bits
  42. Compression mode                         : Lossy
  43. Stream size                              : 297 MiB (7%)
  44. Language                                 : Japanese
  45. Service kind                             : Complete Main
  46. Default                                  : Yes
  47. Forced                                   : No

  48. Audio #2
  49. ID                                       : 3
  50. Format                                   : AC-3
  51. Format/Info                              : Audio Coding 3
  52. Commercial name                          : Dolby Digital
  53. Codec ID                                 : A_AC3
  54. Duration                                 : 1 h 32 min
  55. Bit rate mode                            : Constant
  56. Bit rate                                 : 448 kb/s
  57. Channel(s)                               : 6 channels
  58. Channel layout                           : L R C LFE Ls Rs
  59. Sampling rate                            : 48.0 kHz
  60. Frame rate                               : 31.250 FPS (1536 SPF)
  61. Bit depth                                : 16 bits
  62. Compression mode                         : Lossy
  63. Stream size                              : 297 MiB (7%)
  64. Language                                 : English
  65. Service kind                             : Complete Main
  66. Default                                  : No
  67. Forced                                   : No

  68. Text
  69. ID                                       : 4
  70. Format                                   : UTF-8
  71. Codec ID                                 : S_TEXT/UTF8
  72. Codec ID/Info                            : UTF-8 Plain Text
  73. Language                                 : English
  74. Default                                  : Yes
  75. Forced                                   : No
复制代码

天穹的法芙娜 天堂和地球 Fafner.Heaven.and.Earth.2010.1080p.BluRay.x264-RedBlade 4.36GB-2.png 天穹的法芙娜 天堂和地球 Fafner.Heaven.and.Earth.2010.1080p.BluRay.x264-RedBlade 4.36GB-3.png 天穹的法芙娜 天堂和地球 Fafner.Heaven.and.Earth.2010.1080p.BluRay.x264-RedBlade 4.36GB-4.png







回复

使用道具 举报

蓝光币
97
发表于 2020-4-30 19:42:19 | 显示全部楼层

楼主太厉害了!楼主,电影应该很好看我觉得蓝光电影网真是个好地方!
回复 支持 反对

使用道具 举报

蓝光币
75
发表于 2020-5-18 11:58:40 | 显示全部楼层

这东西我收了!谢谢楼主!蓝光电影网真好!
回复 支持 反对

使用道具 举报

懒得打字嘛,点击右侧快捷回复 【右侧内容,后台自定义】
您需要登录后才可以回帖 登录 | 立即加入

本版积分规则

Archiver|小黑屋| 蓝光电影网 |网站地图

Copyright © 2021 Comsenz Inc. Powered by 蓝光电影网

蓝光电影网

本站内容由用户自主分享和转载自互联网,转载目的在于传递更多信息,并不代表本网赞同其观点和对其真实性负责。

如有侵权、违反国家法律政策行为,请联系我们,我们会第一时间及时清除和处理!

举报反馈邮箱:[email protected]

快速回复 返回顶部 返回列表