找回密码

蓝光电影网

查看: 100|回复: 0

[喜剧] 短道车赛 Short.Track.2008.1080p.AMZN.WEBRip.DDP2.0.x264-ISK 6.52GB

[复制链接]
蓝光币
511
发表于 2020-4-30 21:48:03 | 显示全部楼层 |阅读模式
p2070101027.jpg

译  名 短道车赛
片  名 Short Track
年  代 2008
产  地 美国
类  别 笑剧 / 家庭
语  言 英语
上映日期 2008-09-30
IMDb评分  4.8/10 from 111 users
IMDb链接  https://www.imdb.com/title/tt0473539
豆瓣评分 0/10 from 0 users
豆瓣链接 https://movie.douban.com/subject/3002684/
片  长 100分钟
导  演 Marie Hopkins
编  剧 Marie Hopkins
主  演 Pepper Sweeney
       芭芭拉·尼文 Barbara Niven
       Joshua Snyder
       Ann Bratton
       Patrick Gorman


标  签 芭芭拉·尼文 | 美国 | 家庭 | 笑剧 | 2008

简  介  

  The daily life experiences of Carolinian, Blake Beckett, a five-time stockcar racing short track champion, are exposed through unique characters that work and play through weeks that culminate in 120 mph Saturday nights. Sparks fly as Beckett's country-singing teenaged daughter falls for a young California race molikan.com driver. Blake longs to make it to the sport's top series, while struggling to find a way to help his deaf son follow in his race driving footsteps.
  1. Video
  2. ID                                       : 2
  3. Format                                   : AVC
  4. Format/Info                              : Advanced Video Codec
  5. Format profile                           : [email protected]
  6. Format settings                          : CABAC / 4 Ref Frames
  7. Format settings, CABAC                   : Yes
  8. Format settings, Reference frames        : 4 frames
  9. Codec ID                                 : V_MPEG4/ISO/AVC
  10. Duration                                 : 1 h 36 min
  11. Bit rate mode                            : Variable
  12. Bit rate                                 : 9 426 kb/s
  13. Maximum bit rate                         : 15.0 Mb/s
  14. Width                                    : 1 920 pixels
  15. Height                                   : 1 080 pixels
  16. Display aspect ratio                     : 16:9
  17. Frame rate mode                          : Constant
  18. Frame rate                               : 29.970 (30000/1001/189150) FPS
  19. Color space                              : YUV
  20. Chroma subsampling                       : 4:2:0
  21. Bit depth                                : 8 bits
  22. Scan type                                : Progressive
  23. Bits/(Pixel*Frame)                       : 0.152
  24. Stream size                              : 6.37 GiB (98%)
  25. Default                                  : Yes
  26. Forced                                   : No
  27. Color range                              : Limited
  28. Color primaries                          : BT.709
  29. Transfer characteristics                 : BT.709
  30. Matrix coefficients                      : BT.709

  31. Audio
  32. ID                                       : 1
  33. Format                                   : E-AC-3
  34. Format/Info                              : Enhanced AC-3
  35. Commercial name                          : Dolby Digital Plus
  36. Codec ID                                 : A_EAC3
  37. Duration                                 : 1 h 36 min
  38. Bit rate mode                            : Constant
  39. Bit rate                                 : 224 kb/s
  40. Channel(s)                               : 2 channels
  41. Channel layout                           : L R
  42. Sampling rate                            : 48.0 kHz
  43. Frame rate                               : 31.250 FPS (1536 SPF)
  44. Compression mode                         : Lossy
  45. Stream size                              : 155 MiB (2%)
  46. Language                                 : English
  47. Service kind                             : Complete Main
  48. Default                                  : Yes
  49. Forced                                   : No
复制代码

短道车赛 Short.Track.2008.1080p.AMZN.WEBRip.DDP2.0.x264-ISK 6.52GB-1.png 短道车赛 Short.Track.2008.1080p.AMZN.WEBRip.DDP2.0.x264-ISK 6.52GB-2.png 短道车赛 Short.Track.2008.1080p.AMZN.WEBRip.DDP2.0.x264-ISK 6.52GB-3.png







回复

使用道具 举报

懒得打字嘛,点击右侧快捷回复 【右侧内容,后台自定义】
您需要登录后才可以回帖 登录 | 立即加入

本版积分规则

Archiver|小黑屋| 蓝光电影网 |网站地图

Copyright © 2021 Comsenz Inc. Powered by 蓝光电影网

蓝光电影网

本站内容由用户自主分享和转载自互联网,转载目的在于传递更多信息,并不代表本网赞同其观点和对其真实性负责。

如有侵权、违反国家法律政策行为,请联系我们,我们会第一时间及时清除和处理!

举报反馈邮箱:k[email protected]

快速回复 返回顶部 返回列表