找回密码

蓝光电影网

查看: 425|回复: 7

[动作] 猛禽小队和哈莉·奎茵 Birds.of.Prey.And.the.Fantabulous.Emancipation.of.One.Harley.Quinn.2020.720p.BluRay.x264-WUTANG 4.90GB

[复制链接]
蓝光币
519
发表于 2020-5-2 09:54:40 | 显示全部楼层 |阅读模式
猛禽小队和哈莉·奎茵 Birds.of.Prey.And.the.Fantabulous.Emancipation.of.One.Harley.Quinn.2020.720p.BluRay.x264-WUTANG 4.90GB-1.png

译  名 猛禽小队和哈莉·奎茵 / Birds of Prey / Birds of Prey (And the Fantabulous Emancipation of One Harley Quinn) / Harley Quinn: Birds of Prey / 哈莉·奎因:猛禽小队 / 猛禽小队 / 猛禽小队(以及一个哈莉·奎茵的奇妙束缚) / 猛禽小队与哈莉·奎茵的奇妙束缚 / 猛禽小队:小丑女大束缚(台) / 猛禽暴队:解疯小丑女(港)
片  名 Birds of Prey: And the Fantabulous Emancipation of One Harley Quinn
年  代 2020
产  地 美国
类  别 行动 / 犯罪 / 冒险
语  言 英语
上映日期 2020-02-07(美国)
IMDb评分  6.2/10 from 97202 users
IMDb链接  https://www.imdb.com/title/tt7713068
豆瓣评分 5.7/10 from 47780 users
豆瓣链接 https://movie.douban.com/subject/30160393/
片  长 109分钟
导  演 阎羽茜 Cathy Yan
编  剧 克里斯蒂娜·霍德森 Christina Hodson / 查克·狄克逊 Chuck Dixon / 乔丹·B·戈芬克尔 Jordan B. Gorfinkel / 格雷格·兰德 Greg Land
主  演 玛格特·罗比 Margot Robbie
       玛丽·伊丽莎白·温斯特德 Mary Elizabeth Winstead
       罗茜·佩雷兹 Rosie Perez
       朱尼·斯莫利特 Jurnee Smollett
       伊万·麦克格雷格 Ewan McGregor
       埃拉·杰伊·巴斯科 Ella Jay Basco
       克里斯·梅西纳 Chris Messina
       黄阿丽 Ali Wong
       戴维·尤里 David Ury
       萨拉·蒙特斯 Sara Montez
       伊莎贝尔·帕克扎德 Isabel Pakzad
       丹尼尔·伯哈特 Daniel Bernhardt
       帕洛马·拉比诺夫 Paloma Rabinov
       德里克·威尔逊 Derek Wilson
       乔·布卡罗三世 Joe Bucaro III
       弗朗克西斯·周 Fran?ois Chau
       布鲁诺·奥利弗 Bruno Oliver
       马修·维利希 Matthew Willig
       杰里米·丹茨林格 Jeremy Denzlinger
       迈克尔·马西尼 Michael Masini
       杰西·布什 Jesse Bush
       史蒂文·威廉姆斯 Steven Williams
       夏洛林·阿莫亚 Charlene Amoia
       罗伯特·卡特里尼 Robert Catrini
       埃迪·阿尔法诺 Eddie Alfano
       普拉莫德库马尔 Pramod Kumar
       K.K. 巴雷特 K.K. Barrett
       西蒙·瑞 Simon Rhee
       凯莱布·斯比尔亚兹 Caleb Spillyards
       萨拉·贝克 Sala Baker
       埃夫卡·科瓦拉西尤斯 Efka Kvaraciejus
       山姆·哈格雷夫 Sam Hargrave
       丹尼斯·基弗 Dennis Keiffer
       博亚娜·诺瓦科维奇 Bojana Novakovi?
       埃里克·迈克尔·科尔 Eric Michael Cole
       提姆·里格比 Tim Rigby
       大卫·安东尼·布廖内 David Anthony Buglione
       杰拉德·唐尼 Gerald Downey
       埃迪·J.费尔南德斯 Eddie J. Fernandez
       尼科·格莱瑟姆 Nico Greetham
       朱迪·凯恩 Judy Kain
       杰夫·里帕瑞 Jeff Lipary
       詹妮尔·麦基 Jenelle McKee
       伊戈·米基塔斯 Ego Mikitas
       安东尼·莫利纳利 Anthony Molinari
       迪索·拉莫斯 Diezel Ramos
       凯伦·特利哈 Karen Teliha


标  签 DC | 犯罪 | 女性 | 美国 | 超级豪杰 | 行动 | 漫画改编 | 2020

简  介  

  你听过一个有关差人、歌手、神经病和黑手党公主的故事吗?《猛禽小队和哈莉·奎茵》是一个只要哈莉·奎茵本人材能讲出来的超乎平常的奇妙传奇。哥谭市最为凶残自豪的无赖罗曼·赛恩尼斯和他狂热的手下萨斯为了寻觅一个年轻女孩卡斯,将这座城市翻了个底朝天。哈莉、女猎手、黑金丝雀和蕾妮·蒙托亚萍水重逢,看似违和的四人组不能不团结分歧、携手作战,才有能够打败罗曼。

获奖情况  

  第6届豆瓣电影年度榜单(2019)
  最值得期待的外语电影(提名)
  1. Video
  2. ID                                       : 1
  3. Format                                   : AVC
  4. Format/Info                              : Advanced Video Codec
  5. Format profile                           : [email protected]
  6. Format settings                          : CABAC / 8 Ref Frames
  7. Format settings, CABAC                   : Yes
  8. Format settings, Reference frames        : 8 frames
  9. Codec ID                                 : V_MPEG4/ISO/AVC
  10. Duration                                 : 1 h 48 min
  11. Bit rate                                 : 5 750 kb/s
  12. Width                                    : 1 280 pixels
  13. Height                                   : 536 pixels
  14. Display aspect ratio                     : 2.40:1
  15. Frame rate mode                          : Constant
  16. Frame rate                               : 23.976 (24000/1001/189150) FPS
  17. Color space                              : YUV
  18. Chroma subsampling                       : 4:2:0
  19. Bit depth                                : 8 bits
  20. Scan type                                : Progressive
  21. Bits/(Pixel*Frame)                       : 0.350
  22. Stream size                              : 4.37 GiB (89%)
  23. Writing library                          : x264 core 160 r3000 33f9e14
  24. Encoding settings                        : cabac=1 / ref=8 / deblock=1:-3:-3 / analyse=0x3:0x133 / me=umh / subme=9 / psy=1 / psy_rd=1.00:0.00 / mixed_ref=1 / me_range=24 / chroma_me=1 / trellis=2 / 8x8dct=1 / cqm=0 / deadzone=21,11 / fast_pskip=0 / chroma_qp_offset=-2 / threads=17 / lookahead_threads=1 / sliced_threads=0 / nr=0 / decimate=1 / interlaced=0 / bluray_compat=0 / constrained_intra=0 / bframes=3 / b_pyramid=2 / b_adapt=2 / b_bias=0 / direct=3 / weightb=1 / open_gop=0 / weightp=2 / keyint=250 / keyint_min=23 / scenecut=40 / intra_refresh=0 / rc=crf / mbtree=0 / crf=17.0 / qcomp=0.60 / qpmin=0 / qpmax=69 / qpstep=4 / ip_ratio=1.40 / pb_ratio=1.30 / aq=3:0.80
  25. Default                                  : Yes
  26. Forced                                   : No
  27. Color range                              : Limited
  28. Matrix coefficients                      : BT.709

  29. Audio
  30. ID                                       : 2
  31. Format                                   : AC-3
  32. Format/Info                              : Audio Coding 3
  33. Commercial name                          : Dolby Digital
  34. Codec ID                                 : A_AC3
  35. Duration                                 : 1 h 48 min
  36. Bit rate mode                            : Constant
  37. Bit rate                                 : 640 kb/s
  38. Channel(s)                               : 6 channels
  39. Channel layout                           : L R C LFE Ls Rs
  40. Sampling rate                            : 48.0 kHz
  41. Frame rate                               : 31.250 FPS (1536 SPF)
  42. Bit depth                                : 16 bits
  43. Compression mode                         : Lossy
  44. Stream size                              : 499 MiB (10%)
  45. Title                                    : English
  46. Language                                 : English
  47. Service kind                             : Complete Main
  48. Default                                  : Yes
  49. Forced                                   : No

  50. Text #1
  51. ID                                       : 3
  52. Format                                   : PGS
  53. Muxing mode                              : zlib
  54. Codec ID                                 : S_HDMV/PGS
  55. Codec ID/Info                            : Picture based subtitle format used on BDs/HD-DVDs
  56. Duration                                 : 1 h 48 min
  57. Bit rate                                 : 44.5 kb/s
  58. Count of elements                        : 3876
  59. Stream size                              : 34.5 MiB (1%)
  60. Language                                 : English
  61. Default                                  : No
  62. Forced                                   : No

  63. Text #2
  64. ID                                       : 4
  65. Format                                   : PGS
  66. Muxing mode                              : zlib
  67. Codec ID                                 : S_HDMV/PGS
  68. Codec ID/Info                            : Picture based subtitle format used on BDs/HD-DVDs
  69. Duration                                 : 1 h 48 min
  70. Bit rate                                 : 27.6 kb/s
  71. Count of elements                        : 2854
  72. Stream size                              : 21.4 MiB (0%)
  73. Language                                 : French
  74. Default                                  : No
  75. Forced                                   : No

  76. Text #3
  77. ID                                       : 5
  78. Format                                   : PGS
  79. Muxing mode                              : zlib
  80. Codec ID                                 : S_HDMV/PGS
  81. Codec ID/Info                            : Picture based subtitle format used on BDs/HD-DVDs
  82. Duration                                 : 1 h 48 min
  83. Bit rate                                 : 33.4 kb/s
  84. Count of elements                        : 2926
  85. Stream size                              : 25.9 MiB (1%)
  86. Language                                 : Spanish
  87. Default                                  : No
  88. Forced                                   : No

  89. Text #4
  90. ID                                       : 6
  91. Format                                   : PGS
  92. Muxing mode                              : zlib
  93. Codec ID                                 : S_HDMV/PGS
  94. Codec ID/Info                            : Picture based subtitle format used on BDs/HD-DVDs
  95. Duration                                 : 1 h 48 min
  96. Bit rate                                 : 33.5 kb/s
  97. Count of elements                        : 2922
  98. Stream size                              : 25.9 MiB (1%)
  99. Language                                 : Portuguese
  100. Default                                  : No
  101. Forced                                   : No

  102. Text #5
  103. ID                                       : 7
  104. Format                                   : PGS
  105. Muxing mode                              : zlib
  106. Codec ID                                 : S_HDMV/PGS
  107. Codec ID/Info                            : Picture based subtitle format used on BDs/HD-DVDs
  108. Duration                                 : 1 h 39 min
  109. Bit rate                                 : 1 120 b/s
  110. Count of elements                        : 70
  111. Stream size                              : 818 KiB (0%)
  112. Language                                 : French
  113. Default                                  : No
  114. Forced                                   : No

  115. Text #6
  116. ID                                       : 8
  117. Format                                   : PGS
  118. Muxing mode                              : zlib
  119. Codec ID                                 : S_HDMV/PGS
  120. Codec ID/Info                            : Picture based subtitle format used on BDs/HD-DVDs
  121. Duration                                 : 1 h 33 min
  122. Bit rate                                 : 154 b/s
  123. Count of elements                        : 14
  124. Stream size                              : 106 KiB (0%)
  125. Language                                 : Spanish
  126. Default                                  : No
  127. Forced                                   : No

  128. Text #7
  129. ID                                       : 9
  130. Format                                   : PGS
  131. Muxing mode                              : zlib
  132. Codec ID                                 : S_HDMV/PGS
  133. Codec ID/Info                            : Picture based subtitle format used on BDs/HD-DVDs
  134. Duration                                 : 1 h 39 min
  135. Bit rate                                 : 354 b/s
  136. Count of elements                        : 24
  137. Stream size                              : 258 KiB (0%)
  138. Language                                 : Portuguese
  139. Default                                  : No
  140. Forced                                   : No

  141. Menu
  142. 00:00:00.000                             : en:Chapter 01
  143. 00:08:08.446                             : en:Chapter 02
  144. 00:17:53.739                             : en:Chapter 03
  145. 00:27:11.839                             : en:Chapter 04
  146. 00:35:40.805                             : en:Chapter 05
  147. 00:44:48.352                             : en:Chapter 06
  148. 00:53:43.387                             : en:Chapter 07
  149. 01:01:15.547                             : en:Chapter 08
  150. 01:10:55.960                             : en:Chapter 09
  151. 01:19:06.492                             : en:Chapter 10
  152. 01:24:28.146                             : en:Chapter 11
  153. 01:34:27.996                             : en:Chapter 12
  154. 01:41:26.998                             : en:Chapter 13
复制代码

猛禽小队和哈莉·奎茵 Birds.of.Prey.And.the.Fantabulous.Emancipation.of.One.Harley.Quinn.2020.720p.BluRay.x264-WUTANG 4.90GB-2.png







回复

使用道具 举报

蓝光币
3738
发表于 2020-5-3 00:01:55 | 显示全部楼层
谢谢楼主分享
回复 支持 反对

使用道具 举报

懒得打字嘛,点击右侧快捷回复 【右侧内容,后台自定义】
您需要登录后才可以回帖 登录 | 立即加入

本版积分规则

Archiver|小黑屋| 蓝光电影网 |网站地图

Copyright © 2021 Comsenz Inc. Powered by 蓝光电影网

蓝光电影网

本站内容由用户自主分享和转载自互联网,转载目的在于传递更多信息,并不代表本网赞同其观点和对其真实性负责。

如有侵权、违反国家法律政策行为,请联系我们,我们会第一时间及时清除和处理!

举报反馈邮箱:[email protected]

快速回复 返回顶部 返回列表